当前位置: 首页 >> 欧美电影 >> 饥饿站台[中文字幕].The.Platform.2019.1080p.BluRay.DTS.x265-10bit 5.87GB >> 正文

饥饿站台[中文字幕].The.Platform.2019.1080p.BluRay.DTS.x265-10bit 5.87GB

2021年09月24日 13:06:41     电影发布:来源于网络     电影分类:欧美电影     评论(0)    

饥饿站台[中文字幕].The.Platform.2019.1080p.BluRay.DTS.x265 10bit 5.87GB 科幻片 惊悚片 欧美电影  第1张

◎译 名 饥饿站台 / 饥饿斗室(港) / 绝命大平台(台) / 站台 / The Platform / La plataforma

◎片 名 El hoyo

◎年 代 2019

◎产 地 西班牙

◎类 别 科幻 / 惊悚

◎语 言 西班牙语

◎上映日期 2019-09-06(多伦多电影节) / 2019-11-08(西班牙)

◎IMDb链接 https://www.imdb.com/title/tt8228288/

◎豆瓣评分 7.8/10 (264350人评价)

◎豆瓣链接 https://movie.douban.com/subject/34805219/

◎片 长 94分钟

◎导 演 加尔德·加兹特鲁·乌鲁蒂亚 Galder Gaztelu-Urrutia (id:1423047)

◎编 剧 大卫·德索拉 David Desola (id:1427310)

佩德罗·里韦罗 Pedro Rivero (id:1334092)

◎演 员 伊万·马萨格 Iván Massagué (id:1345178)

佐伦·伊格 Zorion Eguileor (id:1434492)

安东尼亚·圣胡安 Antonia San Juan (id:1000674)

埃米利奥·布阿勒 Emilio Buale (id:1068473)

亚历山德拉·玛桑凯 Alexandra Masangkay (id:1434493)

马里奥·帕尔多 Mario Pardo (id:1127734)

阿尔吉斯·阿洛斯卡斯 Algis Arlauskas (id:1057229)

米莉安·马丁 Miriam Martín (id:1175327)

阿兰扎祖·卡莱亚 Aránzazu Calleja (id:1436456)

◎标 签 人性 / 惊悚 / 悬疑 / 西班牙 / 科幻 / 恐怖 / 西班牙电影 / 2019

◎简 介

在未来的反乌托邦国度中,囚犯们被关押在垂直堆叠的牢房里,饥肠辘辘地看着食物从上层落下,靠近顶层的人吃得饱饱的,而位于底层的人则因饥饿而变得激进。

由加尔德·加斯特卢-乌鲁希亚执导的《饥饿站台》是一部扭曲的社会寓言,讲述了人类最黑暗和最饥渴的一面。

◎获奖情况 (共6项)

第33届欧洲电影奖 (2020)

最佳视觉效果

第34届西班牙戈雅奖 (2020)

最佳新人导演(提名)

└──加尔德·加兹特鲁·乌鲁蒂亚 (id:1423047)

最佳原创剧本(提名)

最佳特效

第44届多伦多国际电影节 (2019)

观众选择奖 午夜疯狂单元

第7届豆瓣电影年度榜单 (2020)

评分最高的恐怖片

  1. ##### MediaInfo ######

  2. General

  3. Unique ID : 36010690678827285900914752468564942154 (0x1B176820BE99F55524D7726168E99D4A)

  4. Complete name : [email protected]kv

  5. Format : Matroska

  6. Format version : Version 4

  7. File size : 5.87 GiB

  8. Duration : 1 h 38 min

  9. Overall bit rate : 8 554 kb/s

  10. Movie name : The Platform 2019 1080p BluRay DTS [email protected]

  11. Encoded date : UTC 2021-08-13 12:12:50

  12. Writing application : mkvmerge v38.0.0 ('The Silent Type') 64-bit

  13. Writing library : libebml v1.3.9 + libmatroska v1.5.2


  14. Video

  15. ID : 1

  16. Format : HEVC

  17. Format/Info : High Efficiency Video Coding

  18. Format profile : Main [email protected]@High

  19. Codec ID : V_MPEGH/ISO/HEVC

  20. Duration : 1 h 38 min

  21. Bit rate : 7 005 kb/s

  22. Width : 1 920 pixels

  23. Height : 804 pixels

  24. Display aspect ratio : 2.40:1

  25. Frame rate mode : Constant

  26. Frame rate : 23.976 (24000/1001/53354) FPS

  27. Color space : YUV

  28. Chroma subsampling : 4:2:0

  29. Bit depth : 10 bits

  30. Bits/(Pixel*Frame) : 0.189

  31. Stream size : 4.81 GiB (82%)

  32. Title : @HDSky

  33. Writing library : x265 - H.265/HEVC codec

  34. Default : Yes

  35. Forced : No


  36. Audio

  37. ID : 2

  38. Format : DTS

  39. Format/Info : Digital Theater Systems

  40. Codec ID : A_DTS

  41. Duration : 1 h 38 min

  42. Bit rate mode : Constant

  43. Bit rate : 1 509 kb/s

  44. Channel(s) : 6 channels

  45. Channel layout : C L R Ls Rs LFE

  46. Sampling rate : 48.0 kHz

  47. Frame rate : 93.750 FPS (512 SPF)

  48. Bit depth : 24 bits

  49. Compression mode : Lossy

  50. Stream size : 1.04 GiB (18%)

  51. Title : Spanish

  52. Language : Spanish

  53. Default : Yes

  54. Forced : No


  55. Text #1

  56. ID : 3

  57. Format : PGS

  58. Muxing mode : zlib

  59. Codec ID : S_HDMV/PGS

  60. Codec ID/Info : Picture based subtitle format used on BDs/HD-DVDs

  61. Duration : 1 h 37 min

  62. Bit rate : 26.6 kb/s

  63. Count of elements : 1626

  64. Stream size : 18.7 MiB (0%)

  65. Title : ENG

  66. Language : English

  67. Default : Yes

  68. Forced : No


  69. Text #2

  70. ID : 4

  71. Format : PGS

  72. Muxing mode : zlib

  73. Codec ID : S_HDMV/PGS

  74. Codec ID/Info : Picture based subtitle format used on BDs/HD-DVDs

  75. Duration : 1 h 31 min

  76. Bit rate : 24.9 kb/s

  77. Count of elements : 1528

  78. Stream size : 16.3 MiB (0%)

  79. Title : CHS

  80. Language : Chinese

  81. Default : No

  82. Forced : No


  83. Text #3

  84. ID : 5

  85. Format : PGS

  86. Muxing mode : zlib

  87. Codec ID : S_HDMV/PGS

  88. Codec ID/Info : Picture based subtitle format used on BDs/HD-DVDs

  89. Duration : 1 h 31 min

  90. Bit rate : 25.5 kb/s

  91. Count of elements : 1528

  92. Stream size : 16.7 MiB (0%)

  93. Title : CHT

  94. Language : Chinese

  95. Default : No

  96. Forced : No


  97. Menu

  98. 00:00:00.000 : en:Chapter 01

  99. 00:05:00.000 : en:Chapter 02

  100. 00:10:00.000 : en:Chapter 03

  101. 00:15:00.000 : en:Chapter 04

  102. 00:20:00.000 : en:Chapter 05

  103. 00:25:00.000 : en:Chapter 06

  104. 00:30:00.000 : en:Chapter 07

  105. 00:35:00.000 : en:Chapter 08

  106. 00:40:00.000 : en:Chapter 09

  107. 00:45:00.000 : en:Chapter 10

  108. 00:50:00.000 : en:Chapter 11

  109. 00:55:00.000 : en:Chapter 12

  110. 01:00:00.000 : en:Chapter 13

  111. 01:05:00.000 : en:Chapter 14

  112. 01:10:00.000 : en:Chapter 15

  113. 01:15:00.000 : en:Chapter 16

  114. 01:20:00.000 : en:Chapter 17

  115. 01:25:00.000 : en:Chapter 18

  116. 01:30:00.000 : en:Chapter 19

  117. 01:35:00.000 : en:Chapter 20


文件下载


除非特别注明,本文『饥饿站台[中文字幕].The.Platform.2019.1080p.BluRay.DTS.x265-10bit 5.87GB』来源于互联网机器人自动抓取,非本站原创。 浮游电影网不对本文拥有版权,如有侵犯,请联系邮箱:fuyouu#yandex.com[#换成@]投诉。我们会在15个工作日内删除。 但烦请转载时请标明出处:“本文转载于『浮游电影网』,原文地址:https://www.fuyouu.com/14552.html

评论吧骚年!

发表你的见解   

昵称*

E-mail*(建议输入,以便收到博主回复的提示邮件)

验证码*

您可以使用eMule或eMule Mod(Windows)、aMule(Win、Linux、Mac)等软件下载eD2k链接。。
eMule收藏集(.emulecollection)文件是您选中的所有链接的列表文件。eMule可以直接下载它们。
按住SHIFT键选择可以选中多个选择框。
可用文件名和大小选择器来选择文件。
文件名选择器帮您根据文件名称或后缀来选择文件。不分大小写。
符号使用:
和:空格( )、+
不包含:-
或:|
转义:一对英文引号("");
匹配开头:^
匹配结尾:$
例如:
选中所有名称中包含有“eMule”或“0.49c”字眼,但不包含有“exe”字眼的:emule|0.49c -exe
选中所有名称的开头是“eMule”,结尾是“0.49c”的:^emule 0.49c$
选中所有名称中带有“eMule 0.49c”的(必须是“eMule 0.49c”,中间没有别的字符,不能是“eMule fake 0.49c”),需要转义:"emule 0.49c"
大小选择器帮您根据文件大小选择文件。