当前位置: 首页 >> 国产电影 >> 法医宋慈2之四宗罪[国语配音/中文字幕].Forensic.Medicine.Song.Ci.2021.4K.WEB-DL.H265.DDP2.0 2.83GB >> 正文

法医宋慈2之四宗罪[国语配音/中文字幕].Forensic.Medicine.Song.Ci.2021.4K.WEB-DL.H265.DDP2.0 2.83GB

2021年09月24日 00:24:08     电影发布:来源于网络     电影分类:国产电影     评论(0)    

法医宋慈2之四宗罪[国语配音/中文字幕].Forensic.Medicine.Song.Ci.2021.4K.WEB DL.H265.DDP2.0 2.83GB 剧情片 国产电影  第1张

◎译 名 法医宋慈之四宗罪

◎片 名 法医宋慈2之四宗罪

◎年 代 2021

◎产 地 中国大陆

◎类 别

◎语 言 汉语普通话

◎上映日期 2021-09-23(中国大陆)

◎豆瓣评分 /10 from 0 users

◎豆瓣链接 https://movie.douban.com/subject/35080587/

◎导 演 胡国瀚 Guohan Hu / 伊力奇 Liqi Yi

◎主 演 于震 Zhen Yu

葛天 Tian Ge

辛月 Yue Xin

李彧 Yu Li

张恒瑞 Hengrui Zhang

◎标 签 电影 | 大陆 | 2021 | 影人 | 奥斯卡 | +中文IP+狄仁杰系列(包拯、宋慈)

◎简 介

宋朝年间,宋慈来到长汀县任职,并专心研究验尸之法只为写一本书《洗冤集录》。突然一天夜晚,同时有一男一女两人丧命,震惊全县。宋慈得知后立刻介入调查,调查验尸过后,宋慈发现事有蹊跷,这并不是简单的杀人案,束手无策之际,宋慈想到了三年都不敢见的女人丹青,可以说长汀县没有丹青不知道的事。于是宋慈来到丹亲处,寻问近期两桩命案的相关事宜,并请求丹青一同查案。经过一些列的分析推理探访之后,终于真相大白。

  1. ##### MediaInfo ######

  2. General

  3. Unique ID : 83940857918022513960351282218727809655 (0x3F266BD2988886C2B7132373F2CEA277)

  4. Complete name : 法医宋慈2之四宗罪[email protected]DQ.COM.mkv

  5. Format : Matroska

  6. Format version : Version 4

  7. File size : 2.83 GiB

  8. Duration : 1 h 36 min

  9. Overall bit rate : 4 195 kb/s

  10. Encoded date : UTC 2021-09-23 07:58:19

  11. Writing application : mkvmerge v61.0.0 ('So') 64-bit

  12. Writing library : libebml v1.4.2 + libmatroska v1.6.4


  13. Video

  14. ID : 1

  15. Format : HEVC

  16. Format/Info : High Efficiency Video Coding

  17. Format profile : [email protected]@Main

  18. Codec ID : V_MPEGH/ISO/HEVC

  19. Duration : 1 h 36 min

  20. Bit rate : 4 097 kb/s

  21. Width : 3 840 pixels

  22. Height : 1 608 pixels

  23. Display aspect ratio : 2.40:1

  24. Frame rate mode : Constant

  25. Frame rate : 24.000 FPS

  26. Color space : YUV

  27. Chroma subsampling : 4:2:0

  28. Bit depth : 8 bits

  29. Bits/(Pixel*Frame) : 0.028

  30. Stream size : 2.76 GiB (98%)

  31. Default : Yes

  32. Forced : No


  33. Audio

  34. ID : 2

  35. Format : E-AC-3

  36. Format/Info : Enhanced AC-3

  37. Commercial name : Dolby Digital Plus

  38. Codec ID : A_EAC3

  39. Duration : 1 h 36 min

  40. Bit rate mode : Constant

  41. Bit rate : 96.0 kb/s

  42. Channel(s) : 2 channels

  43. Channel layout : L R

  44. Sampling rate : 48.0 kHz

  45. Frame rate : 31.250 FPS (1536 SPF)

  46. Compression mode : Lossy

  47. Stream size : 66.3 MiB (2%)

  48. Service kind : Complete Main

  49. Default : Yes

  50. Forced : No


文件下载


除非特别注明,本文『法医宋慈2之四宗罪[国语配音/中文字幕].Forensic.Medicine.Song.Ci.2021.4K.WEB-DL.H265.DDP2.0 2.83GB』来源于互联网机器人自动抓取,非本站原创。 浮游电影网不对本文拥有版权,如有侵犯,请联系邮箱:fuyouu#yandex.com[#换成@]投诉。我们会在15个工作日内删除。 但烦请转载时请标明出处:“本文转载于『浮游电影网』,原文地址:https://www.fuyouu.com/14541.html

评论吧骚年!

发表你的见解   

昵称*

E-mail*(建议输入,以便收到博主回复的提示邮件)

验证码*

您可以使用eMule或eMule Mod(Windows)、aMule(Win、Linux、Mac)等软件下载eD2k链接。。
eMule收藏集(.emulecollection)文件是您选中的所有链接的列表文件。eMule可以直接下载它们。
按住SHIFT键选择可以选中多个选择框。
可用文件名和大小选择器来选择文件。
文件名选择器帮您根据文件名称或后缀来选择文件。不分大小写。
符号使用:
和:空格( )、+
不包含:-
或:|
转义:一对英文引号("");
匹配开头:^
匹配结尾:$
例如:
选中所有名称中包含有“eMule”或“0.49c”字眼,但不包含有“exe”字眼的:emule|0.49c -exe
选中所有名称的开头是“eMule”,结尾是“0.49c”的:^emule 0.49c$
选中所有名称中带有“eMule 0.49c”的(必须是“eMule 0.49c”,中间没有别的字符,不能是“eMule fake 0.49c”),需要转义:"emule 0.49c"
大小选择器帮您根据文件大小选择文件。