当前位置: 首页 >> 国产电影 >> 狩猎行动[国语配音/中文字幕].The.Hunting.Operation.2021.4K.WEB-DL.H265.DDP2.0 2.66GB >> 正文

狩猎行动[国语配音/中文字幕].The.Hunting.Operation.2021.4K.WEB-DL.H265.DDP2.0 2.66GB

2021年09月24日 00:20:33     电影发布:来源于网络     电影分类:国产电影     评论(0)    

狩猎行动[国语配音/中文字幕].The.Hunting.Operation.2021.4K.WEB DL.H265.DDP2.0 2.66GB 犯罪片 动作片 剧情片 国产电影  第1张

◎片 名 狩猎行动

◎年 代 2021

◎产 地 中国大陆

◎类 别 剧情 / 动作 / 犯罪

◎语 言 汉语普通话

◎上映日期 2021-09-22(中国大陆网络)

◎豆瓣评分 /10 from 0 users

◎豆瓣链接 https://movie.douban.com/subject/35316564/

◎片 长 78分钟

◎导 演 黑子 Zi Hei

◎编 剧 杨佳富 Jiafu Yang

◎主 演 李飞 Fei Li

黑子 Zi Hei

王文轩 Wenxuan Wang

葛布 Gabriella

黄垲翔 Kaixiang Huang

杨俊超 Junchao Yang

杨子骅 Zihua Yang

何达 Da He

晋松 Song Jin

洪卫 Wei Hong

郎峰 Feng Lang

郝率 Shuai Hao

张璐瑶 Luyao Zhang

◎标 签 2021等评分 | 大陆 | 缉毒 | 犯罪 | 热血 | 温情 | 慢动作太多 | 大陆国影

◎简 介

李正彬(黑子饰)、王晖(李飞饰)、于振海(郝率饰)三人曾是特种部队出身的战友,感情如同手足,退伍后三人被特警支队特招成为特警,在一次借调工作中,于振海卧底到毒枭扎卡(晋松饰)组织内部,不料在一次交易中被扎卡手下发现并杀害,在警方精心部署调查中挖掘出另一只更强大的,以谭筱山(杨子骅饰)为首的贩毒组织团伙,原来谭筱山和扎卡两拨势力一直想独占市场,吞掉对方,为抓捕两大贩毒头目,王晖主动申请潜入毒贩内部,化名陈昌平(李飞饰)屡次舍命救下谭筱山独子谭子龙,并取得其信任,另一方面,李正彬在成为缉毒支队支队长后,得力干将赵永军(何达饰)及其下属张雷(杨俊超饰)感化了部分毒贩成为警方线人,收集犯罪组织证据。但赵永军和张雷并不知道陈昌平的存在,险些对其造成伤害。单亲妈妈小妹(葛布饰)为给死去的丈夫报仇,感激陈昌平救命其母子之恩,主动申请成为陈昌平和李正彬的线人,陈昌平设局同时拿下两大黑恶势力。与李正彬二人里应外合,一场惊心动魄打击贩毒组织的行动就此开始……

  1. ##### MediaInfo ######

  2. General

  3. Unique ID : 109969074785549884352791816059850041732 (0x52BB45FE1B38DD24161C2B8BF5CFA984)

  4. Complete name : 狩猎行动[email protected]OM.mkv

  5. Format : Matroska

  6. Format version : Version 4

  7. File size : 2.66 GiB

  8. Duration : 1 h 19 min

  9. Overall bit rate : 4 765 kb/s

  10. Encoded date : UTC 2021-09-23 07:07:17

  11. Writing application : mkvmerge v61.0.0 ('So') 64-bit

  12. Writing library : libebml v1.4.2 + libmatroska v1.6.4


  13. Video

  14. ID : 1

  15. Format : HEVC

  16. Format/Info : High Efficiency Video Coding

  17. Format profile : [email protected]@Main

  18. Codec ID : V_MPEGH/ISO/HEVC

  19. Duration : 1 h 19 min

  20. Bit rate : 4 667 kb/s

  21. Width : 3 840 pixels

  22. Height : 1 632 pixels

  23. Display aspect ratio : 2.35:1

  24. Frame rate mode : Constant

  25. Frame rate : 25.000 FPS

  26. Color space : YUV

  27. Chroma subsampling : 4:2:0

  28. Bit depth : 8 bits

  29. Bits/(Pixel*Frame) : 0.030

  30. Stream size : 2.61 GiB (98%)

  31. Default : Yes

  32. Forced : No


  33. Audio

  34. ID : 2

  35. Format : E-AC-3

  36. Format/Info : Enhanced AC-3

  37. Commercial name : Dolby Digital Plus

  38. Codec ID : A_EAC3

  39. Duration : 1 h 19 min

  40. Bit rate mode : Constant

  41. Bit rate : 96.0 kb/s

  42. Channel(s) : 2 channels

  43. Channel layout : L R

  44. Sampling rate : 48.0 kHz

  45. Frame rate : 31.250 FPS (1536 SPF)

  46. Compression mode : Lossy

  47. Stream size : 54.9 MiB (2%)

  48. Service kind : Complete Main

  49. Default : Yes

  50. Forced : No


文件下载


除非特别注明,本文『狩猎行动[国语配音/中文字幕].The.Hunting.Operation.2021.4K.WEB-DL.H265.DDP2.0 2.66GB』来源于互联网机器人自动抓取,非本站原创。 浮游电影网不对本文拥有版权,如有侵犯,请联系邮箱:fuyouu#yandex.com[#换成@]投诉。我们会在15个工作日内删除。 但烦请转载时请标明出处:“本文转载于『浮游电影网』,原文地址:https://5.189.174.242/14538.html

评论吧骚年!

发表你的见解   

昵称*

E-mail*(建议输入,以便收到博主回复的提示邮件)

验证码*

您可以使用eMule或eMule Mod(Windows)、aMule(Win、Linux、Mac)等软件下载eD2k链接。。
eMule收藏集(.emulecollection)文件是您选中的所有链接的列表文件。eMule可以直接下载它们。
按住SHIFT键选择可以选中多个选择框。
可用文件名和大小选择器来选择文件。
文件名选择器帮您根据文件名称或后缀来选择文件。不分大小写。
符号使用:
和:空格( )、+
不包含:-
或:|
转义:一对英文引号("");
匹配开头:^
匹配结尾:$
例如:
选中所有名称中包含有“eMule”或“0.49c”字眼,但不包含有“exe”字眼的:emule|0.49c -exe
选中所有名称的开头是“eMule”,结尾是“0.49c”的:^emule 0.49c$
选中所有名称中带有“eMule 0.49c”的(必须是“eMule 0.49c”,中间没有别的字符,不能是“eMule fake 0.49c”),需要转义:"emule 0.49c"
大小选择器帮您根据文件大小选择文件。