当前位置: 首页 >> 国产电影 >> 血战虎门[国语配音/中文字幕].Destruction.of.Opium.at.Humen.2021.2160p.WEB-DL.H265.AAC 2.07GB >> 正文

血战虎门[国语配音/中文字幕].Destruction.of.Opium.at.Humen.2021.2160p.WEB-DL.H265.AAC 2.07GB

2021年09月23日 13:25:26     电影发布:来源于网络     电影分类:国产电影     评论(0)    

血战虎门[国语配音/中文字幕].Destruction.of.Opium.at.Humen.2021.2160p.WEB DL.H265.AAC 2.07GB 历史 动作片 国产电影  第1张

◎译 名 血战虎门 / 虎门销烟

◎年 代 2021

◎产 地 中国大陆

◎类 别 动作 / 历史

◎语 言 汉语普通话

◎上映日期 2021-09-20(中国大陆网络)

◎IMDb链接 https://www.imdb.com/title//

◎豆瓣链接 https://movie.douban.com/subject/35067563/

◎片 长 90分钟

◎导 演 张哲 Zhe Zhang (id:1427760)

◎编 剧 杨秉佳 Bingjia Yang (id:1323946)

◎演 员 谢苗 Miu Tse (id:1314627)

姚橹 Lu Yao (id:1274497)

杜玉明 Yuming Du (id:1317188)

张梓杉 Zishan Zhang (id:1461534)

曲羿成 Yicheng Qu (id:1459974)

张皓森 Haosen Zhang (id:1408823)

刘峰超 Fengchao Liu (id:1332806)

南思恺 Sikai Nan (id:1411811)

金柯 Ke Jin (id:1335136)

佟俊 Jun Tong (id:1461539)

◎标 签 历史 / 动作 / 正能量 / 中国爱国 / 真实事件改编 / 谢苗 / 社会 / 网大

◎简 介

清末,鸦片被英商包装成“福寿膏”大肆销往中国,无数国民深受其害。广州城内烟馆遍地开花,烟鬼们趋之若鹜,河底沉尸、卖子换烟之事屡见不鲜,家破人亡者不计其数。钦差大臣林则徐(姚橹 饰)奉旨南下销烟,却因触及鸦片背后官商勾结的黑色利益链而屡遭报复,暗杀刺客、人肉炸弹......遭困之际,民间志士华继良(谢苗 饰)联合“街头老夫子”小野(张皓森 饰)、“换皮大师”阿泰(南思恺 饰)、“将门巾帼”安木兰(张梓杉 饰)兵分多路,深入虎穴,与大烟贩何世清(杜玉明 饰)斡旋交易。不料,销烟在即,英国以强硬外交手段介入向清政府施压,而此时心有疑虑的华继良竟选择背叛林则徐,危机一触即发......

  1. ##### MediaInfo ######

  2. General

  3. Complete name : 血战虎门[email protected]BBQDDQ.COM.mp4

  4. Format : MPEG-4

  5. Format profile : Base Media

  6. Codec ID : isom (isom/iso2/mp41)

  7. File size : 2.07 GiB

  8. Duration : 1 h 30 min

  9. Overall bit rate : 3 274 kb/s

  10. Writing application : Lavf58.41.100


  11. Video

  12. ID : 1

  13. Format : HEVC

  14. Format/Info : High Efficiency Video Coding

  15. Format profile : [email protected]@Main

  16. Codec ID : hev1

  17. Codec ID/Info : High Efficiency Video Coding

  18. Duration : 1 h 30 min

  19. Bit rate : 3 077 kb/s

  20. Width : 3 840 pixels

  21. Height : 1 608 pixels

  22. Display aspect ratio : 2.40:1

  23. Frame rate mode : Constant

  24. Frame rate : 25.000 FPS

  25. Color space : YUV

  26. Chroma subsampling : 4:2:0

  27. Bit depth : 8 bits

  28. Bits/(Pixel*Frame) : 0.020

  29. Stream size : 1.95 GiB (94%)

  30. Codec configuration box : hvcC


  31. Audio

  32. ID : 2

  33. Format : AAC LC

  34. Format/Info : Advanced Audio Codec Low Complexity

  35. Codec ID : mp4a-40-2

  36. Duration : 1 h 30 min

  37. Bit rate mode : Constant

  38. Bit rate : 192 kb/s

  39. Channel(s) : 2 channels

  40. Channel layout : L R

  41. Sampling rate : 44.1 kHz

  42. Frame rate : 43.066 FPS (1024 SPF)

  43. Compression mode : Lossy

  44. Stream size : 123 MiB (6%)

  45. Default : Yes

  46. Alternate group : 1



文件下载


除非特别注明,本文『血战虎门[国语配音/中文字幕].Destruction.of.Opium.at.Humen.2021.2160p.WEB-DL.H265.AAC 2.07GB』来源于互联网机器人自动抓取,非本站原创。 浮游电影网不对本文拥有版权,如有侵犯,请联系邮箱:fuyouu#yandex.com[#换成@]投诉。我们会在15个工作日内删除。 但烦请转载时请标明出处:“本文转载于『浮游电影网』,原文地址:https://www.fuyouu.com/14534.html

评论吧骚年!

发表你的见解   

昵称*

E-mail*(建议输入,以便收到博主回复的提示邮件)

验证码*

您可以使用eMule或eMule Mod(Windows)、aMule(Win、Linux、Mac)等软件下载eD2k链接。。
eMule收藏集(.emulecollection)文件是您选中的所有链接的列表文件。eMule可以直接下载它们。
按住SHIFT键选择可以选中多个选择框。
可用文件名和大小选择器来选择文件。
文件名选择器帮您根据文件名称或后缀来选择文件。不分大小写。
符号使用:
和:空格( )、+
不包含:-
或:|
转义:一对英文引号("");
匹配开头:^
匹配结尾:$
例如:
选中所有名称中包含有“eMule”或“0.49c”字眼,但不包含有“exe”字眼的:emule|0.49c -exe
选中所有名称的开头是“eMule”,结尾是“0.49c”的:^emule 0.49c$
选中所有名称中带有“eMule 0.49c”的(必须是“eMule 0.49c”,中间没有别的字符,不能是“eMule fake 0.49c”),需要转义:"emule 0.49c"
大小选择器帮您根据文件大小选择文件。