当前位置: 首页 >> 日韩电影 >> 胜利号[国语配音/中文字幕].Space.Sweepers.2021.Netflix.WEB-DL.1080p.x264.DDP5.1.Atmos 13.78GB >> 正文

胜利号[国语配音/中文字幕].Space.Sweepers.2021.Netflix.WEB-DL.1080p.x264.DDP5.1.Atmos 13.78GB

2021年09月23日 13:22:48     电影发布:来源于网络     电影分类:日韩电影     评论(0)    

胜利号[国语配音/中文字幕].Space.Sweepers.2021.Netflix.WEB DL.1080p.x264.DDP5.1.Atmos 13.78GB 科幻片 日韩电影  第1张

◎译 名 胜利号 / Space Sweepers

◎片 名 ???

◎年 代 2021

◎产 地 韩国

◎类 别 科幻

◎语 言 俄语 / 法语 / 西班牙语 / 韩语 / 英语 / 日语 / 丹麦语 / 汉语普通话 / 阿拉伯语 / 德语 / 菲律宾语

◎上映日期 2021-02-05(韩国网络)

◎IMDb链接 https://www.imdb.com/title/tt12838766/

◎豆瓣评分 6.5/10 (18188人评价)

◎豆瓣链接 https://movie.douban.com/subject/30428359/

◎片 长 136分钟

◎导 演 赵圣熙 Sung-Hee Jo (id:1324190)

◎编 剧 赵圣熙 Sung-Hee Jo (id:1324190)

◎演 员 宋仲基 Joong-ki Song (id:1274931)

金泰梨 Tae-ri Kim (id:1351047)

陈善圭 Seon-kyu Jin (id:1382194)

柳海真 Hae-jin Yu (id:1312810)

理查德·阿米蒂奇 Richard Armitage (id:1022639)

丹尼尔·乔伊·奥尔布赖特 Daniel Joey Albright (id:1381283)

朴艺邻 Ye-rin Park (id:1451480)

金武烈 Moo-yeol Kim (id:1321041)

金香起 Hyang-ki Kim (id:1276094)

加里森·迈克尔·法卡尔森-基纳 Garrison Michael Farquharson-Keener (id:1455736)

◎标 签 科幻 / 韩国 / 韩国电影 / 宋仲基 / 2021 / 电影 / 金泰梨 / 动作

◎简 介

故事讲述2092年,胜利号飞船在太空中展开的冒险,金泰梨饰演胜利号船长,宋仲基饰演问题飞行员。

◎获奖情况 (共4项)

第15届亚洲电影大奖 (2021)

最佳造型设计(提名)

最佳视觉效果(提名)

最佳音响(提名)

第57届百想艺术大赏 (2021)

电影类 最佳艺术奖

  1. ##### MediaInfo ######

  2. General

  3. Unique ID : 152917524334830218911833112384497931849 (0x730AD80ABC216056DF5434D0A7165649)

  4. Complete name : S[email protected]BBQDDQ.COM.mkv

  5. Format : Matroska

  6. Format version : Version 4

  7. File size : 13.8 GiB

  8. Duration : 2 h 17 min

  9. Overall bit rate mode : Variable

  10. Overall bit rate : 14.3 Mb/s

  11. Encoded date : UTC 2021-09-21 13:42:19

  12. Writing application : mkvmerge v58.0.0 ('Supper's Ready') 64-bit

  13. Writing library : libebml v1.4.2 + libmatroska v1.6.4


  14. Video

  15. ID : 1

  16. Format : AVC

  17. Format/Info : Advanced Video Codec

  18. Format profile : [email protected]

  19. Format settings : CABAC / 4 Ref Frames

  20. Format settings, CABAC : Yes

  21. Format settings, Reference frames : 4 frames

  22. Codec ID : V_MPEG4/ISO/AVC

  23. Duration : 2 h 17 min

  24. Bit rate mode : Variable

  25. Bit rate : 7 003 kb/s

  26. Maximum bit rate : 20.0 Mb/s

  27. Width : 1 920 pixels

  28. Height : 1 080 pixels

  29. Display aspect ratio : 16:9

  30. Frame rate mode : Constant

  31. Frame rate : 23.976 (24000/1001/53354) FPS

  32. Color space : YUV

  33. Chroma subsampling : 4:2:0

  34. Bit depth : 8 bits

  35. Scan type : Progressive

  36. Bits/(Pixel*Frame) : 0.141

  37. Stream size : 6.74 GiB (49%)

  38. Writing library : x264 core 148 r2722 1b0121b

  39. Encoding settings : cabac=1 / ref=4 / deblock=1:0:0 / analyse=0x3:0x111 / me=umh / subme=10 / psy=1 / psy_rd=1.00:0.00 / mixed_ref=1 / me_range=120 / chroma_me=1 / trellis=2 / 8x8dct=1 / cqm=0 / deadzone=21,11 / fast_pskip=1 / chroma_qp_offset=-2 / threads=8 / lookahead_threads=2 / sliced_threads=0 / nr=0 / decimate=1 / interlaced=0 / NTMzNTQ= / bluray_compat=0 / stitchable=1 / constrained_intra=0 / bframes=16 / b_pyramid=2 / b_adapt=2 / b_bias=0 / direct=3 / weightb=1 / open_gop=0 / weightp=2 / keyint=240 / keyint_min=121 / scenecut=0 / intra_refresh=0 / rc_lookahead=240 / rc=crf / mbtree=1 / crf=16.0 / qcomp=0.50 / qpmin=6 / qpmax=51 / qpstep=4 / vbv_maxrate=20000 / vbv_bufsize=25000 / crf_max=0.0 / nal_hrd=vbr / filler=0 / NTMzNTQ=LmsMAP37EqsCpk / ip_ratio=1.40 / aq=1:0.80

  40. Default : Yes

  41. Forced : No


  42. Audio #1

  43. ID : 2

  44. Format : E-AC-3 JOC

  45. Format/Info : Enhanced AC-3 with Joint Object Coding

  46. Commercial name : Dolby Digital Plus with Dolby Atmos

  47. Codec ID : A_EAC3

  48. Duration : 2 h 17 min

  49. Bit rate mode : Constant

  50. Bit rate : 768 kb/s

  51. Channel(s) : 6 channels

  52. Channel layout : L R C LFE Ls Rs

  53. Sampling rate : 48.0 kHz

  54. Frame rate : 31.250 FPS (1536 SPF)

  55. Compression mode : Lossy

  56. Delay relative to video : -83 ms

  57. Stream size : 758 MiB (5%)

  58. Title : ???

  59. Language : Korean

  60. Service kind : Complete Main

  61. Default : Yes

  62. Forced : No

  63. Complexity index : 16

  64. Number of dynamic objects : 15

  65. Bed channel count : 1 channel

  66. Bed channel configuration : LFE


  67. Audio #2

  68. ID : 3

  69. Format : E-AC-3 JOC

  70. Format/Info : Enhanced AC-3 with Joint Object Coding

  71. Commercial name : Dolby Digital Plus with Dolby Atmos

  72. Codec ID : A_EAC3

  73. Duration : 2 h 17 min

  74. Bit rate mode : Constant

  75. Bit rate : 768 kb/s

  76. Channel(s) : 6 channels

  77. Channel layout : L R C LFE Ls Rs

  78. Sampling rate : 48.0 kHz

  79. Frame rate : 31.250 FPS (1536 SPF)

  80. Compression mode : Lossy

  81. Delay relative to video : -83 ms

  82. Stream size : 758 MiB (5%)

  83. Title : English

  84. Language : English

  85. Service kind : Complete Main

  86. Default : Yes

  87. Forced : No

  88. Complexity index : 16

  89. Number of dynamic objects : 15

  90. Bed channel count : 1 channel

  91. Bed channel configuration : LFE


  92. Audio #3

  93. ID : 4

  94. Format : E-AC-3

  95. Format/Info : Enhanced AC-3

  96. Commercial name : Dolby Digital Plus

  97. Codec ID : A_EAC3

  98. Duration : 2 h 17 min

  99. Bit rate mode : Constant

  100. Bit rate : 640 kb/s

  101. Channel(s) : 6 channels

  102. Channel layout : L R C LFE Ls Rs

  103. Sampling rate : 48.0 kHz

  104. Frame rate : 31.250 FPS (1536 SPF)

  105. Compression mode : Lossy

  106. Delay relative to video : -83 ms

  107. Stream size : 631 MiB (4%)

  108. Title : Chinese

  109. Language : Chinese

  110. Service kind : Complete Main

  111. Default : Yes

  112. Forced : No


  113. Audio #4

  114. ID : 5

  115. Format : E-AC-3

  116. Format/Info : Enhanced AC-3

  117. Commercial name : Dolby Digital Plus

  118. Codec ID : A_EAC3

  119. Duration : 2 h 17 min

  120. Bit rate mode : Constant

  121. Bit rate : 640 kb/s

  122. Channel(s) : 6 channels

  123. Channel layout : L R C LFE Ls Rs

  124. Sampling rate : 48.0 kHz

  125. Frame rate : 31.250 FPS (1536 SPF)

  126. Compression mode : Lossy

  127. Delay relative to video : -83 ms

  128. Stream size : 631 MiB (4%)

  129. Title : Deutsch

  130. Language : German

  131. Service kind : Complete Main

  132. Default : Yes

  133. Forced : No


  134. Audio #5

  135. ID : 6

  136. Format : E-AC-3

  137. Format/Info : Enhanced AC-3

  138. Commercial name : Dolby Digital Plus

  139. Codec ID : A_EAC3

  140. Duration : 2 h 17 min

  141. Bit rate mode : Constant

  142. Bit rate : 640 kb/s

  143. Channel(s) : 6 channels

  144. Channel layout : L R C LFE Ls Rs

  145. Sampling rate : 48.0 kHz

  146. Frame rate : 31.250 FPS (1536 SPF)

  147. Compression mode : Lossy

  148. Delay relative to video : -83 ms

  149. Stream size : 631 MiB (4%)

  150. Title : Europa Espa?ol

  151. Language : Spanish

  152. Service kind : Complete Main

  153. Default : Yes

  154. Forced : No


  155. Audio #6

  156. ID : 7

  157. Format : E-AC-3

  158. Format/Info : Enhanced AC-3

  159. Commercial name : Dolby Digital Plus

  160. Codec ID : A_EAC3

  161. Duration : 2 h 17 min

  162. Bit rate mode : Constant

  163. Bit rate : 640 kb/s

  164. Channel(s) : 6 channels

  165. Channel layout : L R C LFE Ls Rs

  166. Sampling rate : 48.0 kHz

  167. Frame rate : 31.250 FPS (1536 SPF)

  168. Compression mode : Lossy

  169. Delay relative to video : -83 ms

  170. Stream size : 631 MiB (4%)

  171. Title : Espa?ol

  172. Language : Spanish

  173. Service kind : Complete Main

  174. Default : Yes

  175. Forced : No


  176. Audio #7

  177. ID : 8

  178. Format : E-AC-3

  179. Format/Info : Enhanced AC-3

  180. Commercial name : Dolby Digital Plus

  181. Codec ID : A_EAC3

  182. Duration : 2 h 17 min

  183. Bit rate mode : Constant

  184. Bit rate : 640 kb/s

  185. Channel(s) : 6 channels

  186. Channel layout : L R C LFE Ls Rs

  187. Sampling rate : 48.0 kHz

  188. Frame rate : 31.250 FPS (1536 SPF)

  189. Compression mode : Lossy

  190. Delay relative to video : -83 ms

  191. Stream size : 631 MiB (4%)

  192. Title : Fran?ais

  193. Language : French

  194. Service kind : Complete Main

  195. Default : Yes

  196. Forced : No


  197. Audio #8

  198. ID : 9

  199. Format : E-AC-3

  200. Format/Info : Enhanced AC-3

  201. Commercial name : Dolby Digital Plus

  202. Codec ID : A_EAC3

  203. Duration : 2 h 17 min

  204. Bit rate mode : Constant

  205. Bit rate : 640 kb/s

  206. Channel(s) : 6 channels

  207. Channel layout : L R C LFE Ls Rs

  208. Sampling rate : 48.0 kHz

  209. Frame rate : 31.250 FPS (1536 SPF)

  210. Compression mode : Lossy

  211. Delay relative to video : -83 ms

  212. Stream size : 631 MiB (4%)

  213. Title : Brasileiro

  214. Language : Portuguese

  215. Service kind : Complete Main

  216. Default : Yes

  217. Forced : No


  218. Audio #9

  219. ID : 10

  220. Format : E-AC-3

  221. Format/Info : Enhanced AC-3

  222. Commercial name : Dolby Digital Plus

  223. Codec ID : A_EAC3

  224. Duration : 2 h 17 min

  225. Bit rate mode : Constant

  226. Bit rate : 640 kb/s

  227. Channel(s) : 6 channels

  228. Channel layout : L R C LFE Ls Rs

  229. Sampling rate : 48.0 kHz

  230. Frame rate : 31.250 FPS (1536 SPF)

  231. Compression mode : Lossy

  232. Delay relative to video : -83 ms

  233. Stream size : 631 MiB (4%)

  234. Title : 日本

  235. Language : Japanese

  236. Service kind : Complete Main

  237. Default : Yes

  238. Forced : No


  239. Audio #10

  240. ID : 11

  241. Format : E-AC-3

  242. Format/Info : Enhanced AC-3

  243. Commercial name : Dolby Digital Plus

  244. Codec ID : A_EAC3

  245. Duration : 2 h 17 min

  246. Bit rate mode : Constant

  247. Bit rate : 640 kb/s

  248. Channel(s) : 6 channels

  249. Channel layout : L R C LFE Ls Rs

  250. Sampling rate : 48.0 kHz

  251. Frame rate : 31.250 FPS (1536 SPF)

  252. Compression mode : Lossy

  253. Delay relative to video : -83 ms

  254. Stream size : 631 MiB (4%)

  255. Title : ???????

  256. Language : Thai

  257. Service kind : Complete Main

  258. Default : Yes

  259. Forced : No


  260. Audio #11

  261. ID : 12

  262. Format : E-AC-3

  263. Format/Info : Enhanced AC-3

  264. Commercial name : Dolby Digital Plus

  265. Codec ID : A_EAC3

  266. Duration : 2 h 17 min

  267. Bit rate mode : Constant

  268. Bit rate : 640 kb/s

  269. Channel(s) : 6 channels

  270. Channel layout : L R C LFE Ls Rs

  271. Sampling rate : 48.0 kHz

  272. Frame rate : 31.250 FPS (1536 SPF)

  273. Compression mode : Lossy

  274. Delay relative to video : -83 ms

  275. Stream size : 631 MiB (4%)

  276. Title : Türk?e

  277. Language : Turkish

  278. Service kind : Complete Main

  279. Default : Yes

  280. Forced : No


  281. Text #1

  282. ID : 13

  283. Format : UTF-8

  284. Codec ID : S_TEXT/UTF8

  285. Codec ID/Info : UTF-8 Plain Text

  286. Duration : 2 h 15 min

  287. Bit rate : 90 b/s

  288. Count of elements : 1677

  289. Stream size : 89.9 KiB (0%)

  290. Title : ???????

  291. Language : Arabic

  292. Default : Yes

  293. Forced : No


  294. Text #2

  295. ID : 14

  296. Format : UTF-8

  297. Codec ID : S_TEXT/UTF8

  298. Codec ID/Info : UTF-8 Plain Text

  299. Duration : 2 h 15 min

  300. Bit rate : 53 b/s

  301. Count of elements : 1673

  302. Stream size : 53.3 KiB (0%)

  303. Title : ?e?tina

  304. Language : Czech

  305. Default : Yes

  306. Forced : No


  307. Text #3

  308. ID : 15

  309. Format : UTF-8

  310. Codec ID : S_TEXT/UTF8

  311. Codec ID/Info : UTF-8 Plain Text

  312. Duration : 2 h 15 min

  313. Bit rate : 53 b/s

  314. Count of elements : 1665

  315. Stream size : 53.5 KiB (0%)

  316. Title : Dansk

  317. Language : Danish

  318. Default : Yes

  319. Forced : No


  320. Text #4

  321. ID : 16

  322. Format : UTF-8

  323. Codec ID : S_TEXT/UTF8

  324. Codec ID/Info : UTF-8 Plain Text

  325. Duration : 2 h 15 min

  326. Bit rate : 56 b/s

  327. Count of elements : 1616

  328. Stream size : 56.2 KiB (0%)

  329. Title : Deutsch

  330. Language : German

  331. Default : Yes

  332. Forced : No


  333. Text #5

  334. ID : 17

  335. Format : UTF-8

  336. Codec ID : S_TEXT/UTF8

  337. Codec ID/Info : UTF-8 Plain Text

  338. Duration : 2 h 15 min

  339. Bit rate : 93 b/s

  340. Count of elements : 1677

  341. Stream size : 92.8 KiB (0%)

  342. Title : Ελληνικ?

  343. Language : Greek

  344. Default : Yes

  345. Forced : No


  346. Text #6

  347. ID : 18

  348. Format : UTF-8

  349. Codec ID : S_TEXT/UTF8

  350. Codec ID/Info : UTF-8 Plain Text

  351. Duration : 2 h 14 min

  352. Bit rate : 34 b/s

  353. Count of elements : 1116

  354. Stream size : 33.6 KiB (0%)

  355. Title : English

  356. Language : English

  357. Default : Yes

  358. Forced : No


  359. Text #7

  360. ID : 19

  361. Format : UTF-8

  362. Codec ID : S_TEXT/UTF8

  363. Codec ID/Info : UTF-8 Plain Text

  364. Duration : 2 h 15 min

  365. Bit rate : 54 b/s

  366. Count of elements : 1617

  367. Stream size : 54.0 KiB (0%)

  368. Title : Espa?ol

  369. Language : Spanish

  370. Default : Yes

  371. Forced : No


  372. Text #8

  373. ID : 20

  374. Format : UTF-8

  375. Codec ID : S_TEXT/UTF8

  376. Codec ID/Info : UTF-8 Plain Text

  377. Duration : 2 h 15 min

  378. Bit rate : 53 b/s

  379. Count of elements : 1591

  380. Stream size : 53.1 KiB (0%)

  381. Title : Europa Espa?ol

  382. Language : Spanish

  383. Default : Yes

  384. Forced : No


  385. Text #9

  386. ID : 21

  387. Format : UTF-8

  388. Codec ID : S_TEXT/UTF8

  389. Codec ID/Info : UTF-8 Plain Text

  390. Duration : 2 h 15 min

  391. Bit rate : 52 b/s

  392. Count of elements : 1671

  393. Stream size : 52.3 KiB (0%)

  394. Title : Suomi

  395. Language : Finnish

  396. Default : Yes

  397. Forced : No


  398. Text #10

  399. ID : 22

  400. Format : UTF-8

  401. Codec ID : S_TEXT/UTF8

  402. Codec ID/Info : UTF-8 Plain Text

  403. Duration : 2 h 15 min

  404. Bit rate : 58 b/s

  405. Count of elements : 1685

  406. Stream size : 58.0 KiB (0%)

  407. Title : Fran?ais

  408. Language : French

  409. Default : Yes

  410. Forced : No


  411. Text #11

  412. ID : 23

  413. Format : UTF-8

  414. Codec ID : S_TEXT/UTF8

  415. Codec ID/Info : UTF-8 Plain Text

  416. Duration : 2 h 15 min

  417. Bit rate : 73 b/s

  418. Count of elements : 1676

  419. Stream size : 72.8 KiB (0%)

  420. Title : ?????

  421. Language : Hebrew

  422. Default : Yes

  423. Forced : No


  424. Text #12

  425. ID : 24

  426. Format : UTF-8

  427. Codec ID : S_TEXT/UTF8

  428. Codec ID/Info : UTF-8 Plain Text

  429. Duration : 2 h 15 min

  430. Bit rate : 49 b/s

  431. Count of elements : 1559

  432. Stream size : 49.4 KiB (0%)

  433. Title : Hrvatski

  434. Language : Croatian

  435. Default : Yes

  436. Forced : No


  437. Text #13

  438. ID : 25

  439. Format : UTF-8

  440. Codec ID : S_TEXT/UTF8

  441. Codec ID/Info : UTF-8 Plain Text

  442. Duration : 2 h 15 min

  443. Bit rate : 52 b/s

  444. Count of elements : 1668

  445. Stream size : 52.2 KiB (0%)

  446. Title : Magyar

  447. Language : Hungarian

  448. Default : Yes

  449. Forced : No


  450. Text #14

  451. ID : 26

  452. Format : UTF-8

  453. Codec ID : S_TEXT/UTF8

  454. Codec ID/Info : UTF-8 Plain Text

  455. Duration : 2 h 15 min

  456. Bit rate : 53 b/s

  457. Count of elements : 1651

  458. Stream size : 53.1 KiB (0%)

  459. Title : Indonesian

  460. Language : Indonesian

  461. Default : Yes

  462. Forced : No


  463. Text #15

  464. ID : 27

  465. Format : UTF-8

  466. Codec ID : S_TEXT/UTF8

  467. Codec ID/Info : UTF-8 Plain Text

  468. Duration : 2 h 15 min

  469. Bit rate : 55 b/s

  470. Count of elements : 1615

  471. Stream size : 54.9 KiB (0%)

  472. Title : Italian

  473. Language : Italian

  474. Default : Yes

  475. Forced : No


  476. Text #16

  477. ID : 28

  478. Format : UTF-8

  479. Codec ID : S_TEXT/UTF8

  480. Codec ID/Info : UTF-8 Plain Text

  481. Duration : 2 h 15 min

  482. Bit rate : 106 b/s

  483. Count of elements : 1694

  484. Stream size : 106 KiB (0%)

  485. Title : 日本語

  486. Language : Japanese

  487. Default : Yes

  488. Forced : No


  489. Text #17

  490. ID : 29

  491. Format : UTF-8

  492. Codec ID : S_TEXT/UTF8

  493. Codec ID/Info : UTF-8 Plain Text

  494. Duration : 2 h 16 min

  495. Bit rate : 103 b/s

  496. Count of elements : 2469

  497. Stream size : 103 KiB (0%)

  498. Title : ??? (SDH)

  499. Language : Korean

  500. Default : Yes

  501. Forced : No


  502. Text #18

  503. ID : 30

  504. Format : UTF-8

  505. Codec ID : S_TEXT/UTF8

  506. Codec ID/Info : UTF-8 Plain Text

  507. Duration : 2 h 15 min

  508. Bit rate : 53 b/s

  509. Count of elements : 1677

  510. Stream size : 53.2 KiB (0%)

  511. Title : Malaysia

  512. Language : Malay

  513. Default : Yes

  514. Forced : No


  515. Text #19

  516. ID : 31

  517. Format : UTF-8

  518. Codec ID : S_TEXT/UTF8

  519. Codec ID/Info : UTF-8 Plain Text

  520. Duration : 2 h 15 min

  521. Bit rate : 51 b/s

  522. Count of elements : 1669

  523. Stream size : 51.2 KiB (0%)

  524. Title : Norsk?Bokm?l

  525. Language : Norwegian Bokmal

  526. Default : Yes

  527. Forced : No


  528. Text #20

  529. ID : 32

  530. Format : UTF-8

  531. Codec ID : S_TEXT/UTF8

  532. Codec ID/Info : UTF-8 Plain Text

  533. Duration : 2 h 15 min

  534. Bit rate : 50 b/s

  535. Count of elements : 1658

  536. Stream size : 50.3 KiB (0%)

  537. Title : Nederlands

  538. Language : Dutch

  539. Default : Yes

  540. Forced : No


  541. Text #21

  542. ID : 33

  543. Format : UTF-8

  544. Codec ID : S_TEXT/UTF8

  545. Codec ID/Info : UTF-8 Plain Text

  546. Duration : 2 h 15 min

  547. Bit rate : 46 b/s

  548. Count of elements : 1644

  549. Stream size : 46.0 KiB (0%)

  550. Title : Polski

  551. Language : Polish

  552. Default : Yes

  553. Forced : No


  554. Text #22

  555. ID : 34

  556. Format : UTF-8

  557. Codec ID : S_TEXT/UTF8

  558. Codec ID/Info : UTF-8 Plain Text

  559. Duration : 2 h 15 min

  560. Bit rate : 53 b/s

  561. Count of elements : 1671

  562. Stream size : 53.3 KiB (0%)

  563. Title : Português

  564. Language : Portuguese

  565. Default : Yes

  566. Forced : No


  567. Text #23

  568. ID : 35

  569. Format : UTF-8

  570. Codec ID : S_TEXT/UTF8

  571. Codec ID/Info : UTF-8 Plain Text

  572. Duration : 2 h 15 min

  573. Bit rate : 57 b/s

  574. Count of elements : 1666

  575. Stream size : 57.4 KiB (0%)

  576. Title : Brasileiro Português

  577. Language : Portuguese

  578. Default : Yes

  579. Forced : No


  580. Text #24

  581. ID : 36

  582. Format : UTF-8

  583. Codec ID : S_TEXT/UTF8

  584. Codec ID/Info : UTF-8 Plain Text

  585. Duration : 2 h 15 min

  586. Bit rate : 55 b/s

  587. Count of elements : 1673

  588. Stream size : 55.1 KiB (0%)

  589. Title : Roman?

  590. Language : Romanian

  591. Default : Yes

  592. Forced : No


  593. Text #25

  594. ID : 37

  595. Format : UTF-8

  596. Codec ID : S_TEXT/UTF8

  597. Codec ID/Info : UTF-8 Plain Text

  598. Duration : 2 h 15 min

  599. Bit rate : 89 b/s

  600. Count of elements : 1616

  601. Stream size : 89.4 KiB (0%)

  602. Title : русский язык

  603. Language : Russian

  604. Default : Yes

  605. Forced : No


  606. Text #26

  607. ID : 38

  608. Format : UTF-8

  609. Codec ID : S_TEXT/UTF8

  610. Codec ID/Info : UTF-8 Plain Text

  611. Duration : 2 h 15 min

  612. Bit rate : 53 b/s

  613. Count of elements : 1670

  614. Stream size : 52.9 KiB (0%)

  615. Title : Svenska

  616. Language : Swedish

  617. Default : Yes

  618. Forced : No


  619. Text #27

  620. ID : 39

  621. Format : UTF-8

  622. Codec ID : S_TEXT/UTF8

  623. Codec ID/Info : UTF-8 Plain Text

  624. Duration : 2 h 15 min

  625. Bit rate : 143 b/s

  626. Count of elements : 1681

  627. Stream size : 143 KiB (0%)

  628. Title : ???????

  629. Language : Thai

  630. Default : Yes

  631. Forced : No


  632. Text #28

  633. ID : 40

  634. Format : UTF-8

  635. Codec ID : S_TEXT/UTF8

  636. Codec ID/Info : UTF-8 Plain Text

  637. Duration : 2 h 15 min

  638. Bit rate : 53 b/s

  639. Count of elements : 1669

  640. Stream size : 52.9 KiB (0%)

  641. Title : Türk?e

  642. Language : Turkish

  643. Default : Yes

  644. Forced : No


  645. Text #29

  646. ID : 41

  647. Format : UTF-8

  648. Codec ID : S_TEXT/UTF8

  649. Codec ID/Info : UTF-8 Plain Text

  650. Duration : 2 h 15 min

  651. Bit rate : 88 b/s

  652. Count of elements : 1750

  653. Stream size : 87.9 KiB (0%)

  654. Title : Укра?нська

  655. Language : Ukrainian

  656. Default : Yes

  657. Forced : No


  658. Text #30

  659. ID : 42

  660. Format : UTF-8

  661. Codec ID : S_TEXT/UTF8

  662. Codec ID/Info : UTF-8 Plain Text

  663. Duration : 2 h 15 min

  664. Bit rate : 68 b/s

  665. Count of elements : 1668

  666. Stream size : 67.9 KiB (0%)

  667. Title : Ti?ng Vi?t

  668. Language : Vietnamese

  669. Default : Yes

  670. Forced : No


  671. Text #31

  672. ID : 43

  673. Format : UTF-8

  674. Codec ID : S_TEXT/UTF8

  675. Codec ID/Info : UTF-8 Plain Text

  676. Duration : 2 h 15 min

  677. Bit rate : 51 b/s

  678. Count of elements : 1693

  679. Stream size : 51.2 KiB (0%)

  680. Title : 中文(简体)

  681. Language : Chinese

  682. Default : Yes

  683. Forced : No


  684. Text #32

  685. ID : 44

  686. Format : UTF-8

  687. Codec ID : S_TEXT/UTF8

  688. Codec ID/Info : UTF-8 Plain Text

  689. Duration : 2 h 15 min

  690. Bit rate : 51 b/s

  691. Count of elements : 1692

  692. Stream size : 51.7 KiB (0%)

  693. Title : 中文(繁體)

  694. Language : Chinese

  695. Default : Yes

  696. Forced : No



文件下载


除非特别注明,本文『胜利号[国语配音/中文字幕].Space.Sweepers.2021.Netflix.WEB-DL.1080p.x264.DDP5.1.Atmos 13.78GB』来源于互联网机器人自动抓取,非本站原创。 浮游电影网不对本文拥有版权,如有侵犯,请联系邮箱:fuyouu#yandex.com[#换成@]投诉。我们会在15个工作日内删除。 但烦请转载时请标明出处:“本文转载于『浮游电影网』,原文地址:https://www.fuyouu.com/14532.html

评论吧骚年!

发表你的见解   

昵称*

E-mail*(建议输入,以便收到博主回复的提示邮件)

验证码*

您可以使用eMule或eMule Mod(Windows)、aMule(Win、Linux、Mac)等软件下载eD2k链接。。
eMule收藏集(.emulecollection)文件是您选中的所有链接的列表文件。eMule可以直接下载它们。
按住SHIFT键选择可以选中多个选择框。
可用文件名和大小选择器来选择文件。
文件名选择器帮您根据文件名称或后缀来选择文件。不分大小写。
符号使用:
和:空格( )、+
不包含:-
或:|
转义:一对英文引号("");
匹配开头:^
匹配结尾:$
例如:
选中所有名称中包含有“eMule”或“0.49c”字眼,但不包含有“exe”字眼的:emule|0.49c -exe
选中所有名称的开头是“eMule”,结尾是“0.49c”的:^emule 0.49c$
选中所有名称中带有“eMule 0.49c”的(必须是“eMule 0.49c”,中间没有别的字符,不能是“eMule fake 0.49c”),需要转义:"emule 0.49c"
大小选择器帮您根据文件大小选择文件。