当前位置: 首页 >> 海外电影 >> 玩命快递[双语字幕].The.Transporter.2002.1080p.BluRay.DD5.1.x265-10bit 4.94GB >> 正文

玩命快递[双语字幕].The.Transporter.2002.1080p.BluRay.DD5.1.x265-10bit 4.94GB

2021年09月23日 13:17:26     电影发布:来源于网络     电影分类:海外电影     评论(0)    

玩命快递[双语字幕].The.Transporter.2002.1080p.BluRay.DD5.1.x265 10bit 4.94GB 犯罪片 动作片 海外电影  第1张

◎译 名 玩命快递 / 非常人贩 / 绝命速递 / 玩命速递

◎片 名 The Transporter

◎年 代 2002

◎产 地 法国 / 美国

◎类 别 动作 / 犯罪

◎语 言 英语 / 法语 / 中文

◎上映日期 2002-10-11

◎IMDb链接 https://www.imdb.com/title/tt0293662/

◎豆瓣评分 7.3/10 (108771人评价)

◎豆瓣链接 https://movie.douban.com/subject/1303139/

◎片 长 92 分钟

◎导 演 路易斯·莱特里尔 Louis Leterrier (id:1018091)

元奎 Corey Yuen (id:1289150)

◎编 剧 吕克·贝松 Luc Besson (id:1031876)

罗伯特·马克·卡门 Robert Mark Kamen (id:1288065)

◎演 员 杰森·斯坦森 Jason Statham (id:1049484)

舒淇 Qi Shu (id:1138320)

弗朗索瓦·贝莱昂 Fran?ois Berléand (id:1054351)

马特·斯查尔兹 Matt Schulze (id:1009388)

里克·扬 Ric Young (id:1275648)

文森特·内梅斯 Vincent Nemeth (id:1354292)

阿弗列德·洛特 Alfred Lot (id:1290351)

克里斯蒂安·加奇奥 Christian Gazio (id:1091607)

山德琳·里格奥 Sandrine Rigaux (id:1191017)

文森特·图利 Vincent Tulli (id:1159978)

区亨利 Henry O (id:1023118)

阿弗列德·洛特 Alfred Lot (id:1290351)

黎大炜 David Lai (id:1289258)

吕克·贝松 Luc Besson (id:1031876)

Stanley Clarke Stanley Clarke (id:1013737)

皮埃尔·莫瑞尔 Pierre Morel (id:1044975)

Nicolas Trembasiewicz Nicolas Trembasiewicz (id:1021192)

Hugues Tissandier Hugues Tissandier (id:1299314)

元奎 Corey Yuen (id:1289150)

路易斯·莱特里尔 Louis Leterrier (id:1018091)

Pierre Blain Pierre Blain (id:1188646)

◎标 签 动作 / JasonStatham / 美国 / 犯罪 / 舒淇 / 法国 / 美国电影 / 杰森·斯坦森

◎简 介

身手不凡的退役特种兵弗兰克·马丁(杰森·斯坦森 Jason Statham 饰)如今从事着用宝马车货运的营生,弗兰克不管自己服务的是否是银行抢劫犯,他更关注协议与原则。一单任务结束后,他免不了又要迎接警察的盘问与新工作。一个美国犯罪团伙托付弗兰克运送一件物品,弗兰克不经意中发现货物居然是一位名叫莱(舒淇 饰)的东方女子。弗兰克完成任务后对方却要灭口,只得带着莱回到住处。弗兰克这次惹上的麻烦显然不小,因为雇主随后带人将他的住所夷为平地,莱神秘的身份也浮出水面:原来她是某国际蛇头的独女。弗兰克被卷入了偷渡犯罪中的父女情仇,他需要作出决定来面对他和莱的关系与正义。

  1. ##### MediaInfo ######

  2. General

  3. Unique ID : 108639336348571120434717720864922042637 (0x51BB2CD36EC576DCD52811A08F18810D)

  4. Complete name : The.Transporter.2002.1080p.BluRay.DD5.1.x265-10[email protected]

  5. Format : Matroska

  6. Format version : Version 4

  7. File size : 4.94 GiB

  8. Duration : 1 h 32 min

  9. Overall bit rate : 7 644 kb/s

  10. Movie name : The Transporter 2002 1080p BluRay DD5.1 [email protected]

  11. Encoded date : UTC 2021-09-16 05:40:05

  12. Writing application : mkvmerge v38.0.0 ('The Silent Type') 64-bit

  13. Writing library : libebml v1.3.9 + libmatroska v1.5.2


  14. Video

  15. ID : 1

  16. Format : HEVC

  17. Format/Info : High Efficiency Video Coding

  18. Format profile : Main [email protected]@High

  19. Codec ID : V_MPEGH/ISO/HEVC

  20. Duration : 1 h 32 min

  21. Bit rate : 6 958 kb/s

  22. Width : 1 920 pixels

  23. Height : 820 pixels

  24. Display aspect ratio : 2.35:1

  25. Frame rate mode : Constant

  26. Frame rate : 23.976 (24000/1001/53354) FPS

  27. Color space : YUV

  28. Chroma subsampling : 4:2:0

  29. Bit depth : 10 bits

  30. Bits/(Pixel*Frame) : 0.184

  31. Stream size : 4.50 GiB (91%)

  32. Title : @HDSky

  33. Writing library : x265 - H.265/HEVC codec

  34. Default : Yes

  35. Forced : No


  36. Audio

  37. ID : 2

  38. Format : AC-3

  39. Format/Info : Audio Coding 3

  40. Commercial name : Dolby Digital

  41. Codec ID : A_AC3

  42. Duration : 1 h 32 min

  43. Bit rate mode : Constant

  44. Bit rate : 640 kb/s

  45. Channel(s) : 6 channels

  46. Channel layout : L R C LFE Ls Rs

  47. Sampling rate : 48.0 kHz

  48. Frame rate : 31.250 FPS (1536 SPF)

  49. Compression mode : Lossy

  50. Stream size : 424 MiB (8%)

  51. Title : English

  52. Language : English

  53. Service kind : Complete Main

  54. Default : Yes

  55. Forced : No


  56. Text #1

  57. ID : 3

  58. Format : PGS

  59. Muxing mode : zlib

  60. Codec ID : S_HDMV/PGS

  61. Codec ID/Info : Picture based subtitle format used on BDs/HD-DVDs

  62. Duration : 1 h 26 min

  63. Bit rate : 48.1 kb/s

  64. Count of elements : 2422

  65. Stream size : 29.8 MiB (1%)

  66. Title : ENG

  67. Language : English

  68. Default : Yes

  69. Forced : No


  70. Text #2

  71. ID : 4

  72. Format : PGS

  73. Muxing mode : zlib

  74. Codec ID : S_HDMV/PGS

  75. Codec ID/Info : Picture based subtitle format used on BDs/HD-DVDs

  76. Duration : 1 h 25 min

  77. Bit rate : 11.9 kb/s

  78. Count of elements : 1026

  79. Stream size : 7.27 MiB (0%)

  80. Title : CHS

  81. Language : Chinese

  82. Default : No

  83. Forced : No


  84. Text #3

  85. ID : 5

  86. Format : PGS

  87. Muxing mode : zlib

  88. Codec ID : S_HDMV/PGS

  89. Codec ID/Info : Picture based subtitle format used on BDs/HD-DVDs

  90. Duration : 1 h 25 min

  91. Bit rate : 12.4 kb/s

  92. Count of elements : 1026

  93. Stream size : 7.57 MiB (0%)

  94. Title : CHT

  95. Language : Chinese

  96. Default : No

  97. Forced : No


  98. Text #4

  99. ID : 6

  100. Format : PGS

  101. Muxing mode : zlib

  102. Codec ID : S_HDMV/PGS

  103. Codec ID/Info : Picture based subtitle format used on BDs/HD-DVDs

  104. Duration : 1 h 25 min

  105. Bit rate : 21.7 kb/s

  106. Count of elements : 1026

  107. Stream size : 13.2 MiB (0%)

  108. Title : CHS&ENG

  109. Language : Chinese

  110. Default : No

  111. Forced : No


  112. Text #5

  113. ID : 7

  114. Format : PGS

  115. Muxing mode : zlib

  116. Codec ID : S_HDMV/PGS

  117. Codec ID/Info : Picture based subtitle format used on BDs/HD-DVDs

  118. Duration : 1 h 25 min

  119. Bit rate : 22.2 kb/s

  120. Count of elements : 1026

  121. Stream size : 13.5 MiB (0%)

  122. Title : CHT&ENG

  123. Language : Chinese

  124. Default : No

  125. Forced : No


  126. Menu

  127. 00:00:00.000 : en:Chapter 01

  128. 00:04:57.923 : en:Chapter 02

  129. 00:10:59.492 : en:Chapter 03

  130. 00:14:54.894 : en:Chapter 04

  131. 00:24:15.746 : en:Chapter 05

  132. 00:31:36.436 : en:Chapter 06

  133. 00:44:26.330 : en:Chapter 07

  134. 00:51:21.787 : en:Chapter 08

  135. 01:01:39.195 : en:Chapter 09

  136. 01:05:56.536 : en:Chapter 10

  137. 01:16:43.307 : en:Chapter 11

  138. 01:23:46.188 : en:Chapter 12



文件下载


除非特别注明,本文『玩命快递[双语字幕].The.Transporter.2002.1080p.BluRay.DD5.1.x265-10bit 4.94GB』来源于互联网机器人自动抓取,非本站原创。 浮游电影网不对本文拥有版权,如有侵犯,请联系邮箱:fuyouu#yandex.com[#换成@]投诉。我们会在15个工作日内删除。 但烦请转载时请标明出处:“本文转载于『浮游电影网』,原文地址:https://www.fuyouu.com/14528.html

评论吧骚年!

发表你的见解   

昵称*

E-mail*(建议输入,以便收到博主回复的提示邮件)

验证码*

您可以使用eMule或eMule Mod(Windows)、aMule(Win、Linux、Mac)等软件下载eD2k链接。。
eMule收藏集(.emulecollection)文件是您选中的所有链接的列表文件。eMule可以直接下载它们。
按住SHIFT键选择可以选中多个选择框。
可用文件名和大小选择器来选择文件。
文件名选择器帮您根据文件名称或后缀来选择文件。不分大小写。
符号使用:
和:空格( )、+
不包含:-
或:|
转义:一对英文引号("");
匹配开头:^
匹配结尾:$
例如:
选中所有名称中包含有“eMule”或“0.49c”字眼,但不包含有“exe”字眼的:emule|0.49c -exe
选中所有名称的开头是“eMule”,结尾是“0.49c”的:^emule 0.49c$
选中所有名称中带有“eMule 0.49c”的(必须是“eMule 0.49c”,中间没有别的字符,不能是“eMule fake 0.49c”),需要转义:"emule 0.49c"
大小选择器帮您根据文件大小选择文件。