当前位置: 首页 >> 欧美电影 >> 破茧威龙[中文字幕].Lock.Up.1989.2160p.HDR.UHD.BluRay.DTS-HD.MA.5.1.x265-10bit 16.46GB >> 正文

破茧威龙[中文字幕].Lock.Up.1989.2160p.HDR.UHD.BluRay.DTS-HD.MA.5.1.x265-10bit 16.46GB

2021年09月23日 13:08:50     电影发布:来源于网络     电影分类:欧美电影     评论(0)    

破茧威龙[中文字幕].Lock.Up.1989.2160p.HDR.UHD.BluRay.DTS HD.MA.5.1.x265 10bit 16.46GB 犯罪片 惊悚片 动作片 欧美电影  第1张

◎译 名 破茧威龙 / 黑狱灾星 / Condena brutal

◎片 名 Lock Up

◎年 代 1989

◎产 地 美国

◎类 别 动作 / 惊悚 / 犯罪

◎语 言 英语

◎上映日期 1989-08-04(美国)

◎IMDb链接 https://www.imdb.com/title/tt0097770/

◎豆瓣评分 7.0/10 (1383人评价)

◎豆瓣链接 https://movie.douban.com/subject/1299316/

◎片 长 109分钟

◎导 演 约翰·弗林 John Flynn (id:1084829)

◎编 剧 理查德·史密斯 Richard Smith (id:1324020)

杰布·斯图尔特 Jeb Stuart (id:1005245)

亨利·罗森鲍姆 Henry Rosenbaum (id:1324021)

理查德·史密斯 Richard Smith (id:1156065)

◎演 员 西尔维斯特·史泰龙 Sylvester Stallone (id:1047996)

唐纳德·萨瑟兰 Donald Sutherland (id:1010556)

约翰·阿莫斯 John Amos (id:1013983)

索尼·兰哈姆 Sonny Landham (id:1007057)

汤姆·塞兹摩尔 Tom Sizemore (id:1036371)

弗兰克·麦克雷 Frank McRae (id:1115949)

达兰妮·弗鲁格 Darlanne Fluegel (id:1036709)

威廉·艾伦·扬 William Allen Young (id:1319333)

拉里·罗曼诺 Larry Romano (id:1022846)

乔丹·朗德 Jordan Lund (id:1118207)

Dean Rader-Duval Dean Rader-Duval (id:1335081)

Jerry Strivelli Jerry Strivelli (id:1154361)

丹尼·特雷霍 Danny Trejo (id:1044721)

托尼·利普 Tony Lip (id:1409647)

Bo Rucker Bo Rucker (id:1141196)

Robert Vazquez Robert Vazquez (id:1152457)

Anthony Crivello Anthony Crivello (id:1069383)

Anthony Gray Anthony Gray (id:1097555)

亚当·西蒙 Adam Simon (id:1005659)

劳伦斯·戈登 Lawrence Gordon (id:1000700)

Lloyd Levin Lloyd Levin (id:1289893)

查尔斯·戈登 Charles Gordon (id:1045801)

Michael S. Glick Michael S. Glick (id:1284974)

比尔·康堤 Bill Conti (id:1002860)

Michael N. Knue Michael N. Knue (id:1288792)

罗伯特·法拉帝 Robert A. Ferretti (id:1283647)

唐·布罗丘 Don Brochu (id:1279342)

老乔治·德蒂塔 George DeTitta Sr. (id:1282304)

Gary Liddiard Gary Liddiard (id:1290022)

Allen Weisinger Allen Weisinger (id:1300632)

科琳·卡拉甘 Colleen Callaghan (id:1279892)

Ann Brodie Ann Brodie (id:1279356)

纽维特·阿诺 Newt Arnold (id:1032898)

David Sosna David Sosna (id:1298082)

弗兰克·卡普拉三世 Frank Capra III (id:1012679)

威廉·梅萨 William Mesa (id:1291905)

Tim Donahue Tim Donahue (id:1282562)

约翰·科茨 John Coats (id:1280929)

◎标 签 史泰龙 / 动作 / 美国 / 监狱 / 犯罪 / 1989 / 美国电影 / 剧情

◎简 介

模范犯人弗兰克?莱昂尼(西尔维斯特?史泰龙 Sylvester Stallone 饰)的刑期还剩半年,他定期可以外出与女友见面,这个昔日的修车技师看中了一处仓库作为日后的修理部,平凡的生活在等待着他。然而某天他突然被转移到环境恶劣的盖特威监狱,全因五年前他为了见师父兼养父的最后一面,从监狱长庄古(唐纳德?萨瑟兰 Donald Sutherland 饰)的治下逃脱。弗兰克越狱成功成为英雄,而庄古却遭受处罚怀恨在心。现在,庄古将弗兰克重新掌握,寻机报仇。

弗兰克遭到了庄古及手下的恶劣对待,但始终隐忍,并且渐渐在监狱中结交了几个朋友,包括始终想越狱的囚房万事通、瘦弱年轻的“杀手”和狱中修理厂的负责人,枯燥的生活有了好转,但是庄古始终默默注视着他,准备给他更大的痛苦……

  1. ##### MediaInfo ######

  2. General

  3. Unique ID : 15574618711800734013975871004629851666 (0xBB78FFD0C232D8E95C7DB8FE864DE12)

  4. Complete name : L[email protected]BBQDDQ.COM.mkv

  5. Format : Matroska

  6. Format version : Version 4

  7. File size : 16.5 GiB

  8. Duration : 1 h 48 min

  9. Overall bit rate mode : Variable

  10. Overall bit rate : 21.7 Mb/s

  11. Movie name : Lock Up 1989 2160p HDR UHD BluRay DTS-HD MA 5.1 [email protected]

  12. Encoded date : UTC 2021-09-22 05:23:34

  13. Writing application : mkvmerge v38.0.0 ('The Silent Type') 64-bit

  14. Writing library : libebml v1.3.9 + libmatroska v1.5.2


  15. Video

  16. ID : 1

  17. Format : HEVC

  18. Format/Info : High Efficiency Video Coding

  19. Format profile : Main [email protected]@High

  20. HDR format : SMPTE ST 2086, HDR10 compatible

  21. Codec ID : V_MPEGH/ISO/HEVC

  22. Duration : 1 h 48 min

  23. Bit rate : 17.6 Mb/s

  24. Width : 3 840 pixels

  25. Height : 2 160 pixels

  26. Display aspect ratio : 16:9

  27. Frame rate mode : Constant

  28. Frame rate : 24.000 FPS

  29. Color space : YUV

  30. Chroma subsampling : 4:2:0

  31. Bit depth : 10 bits

  32. Bits/(Pixel*Frame) : 0.089

  33. Stream size : 13.4 GiB (81%)

  34. Title : @HDSky

  35. Writing library : x265 - H.265/HEVC codec

  36. Default : Yes

  37. Forced : No

  38. Color range : Limited

  39. Color primaries : BT.2020

  40. Transfer characteristics : PQ

  41. Matrix coefficients : BT.2020 non-constant

  42. Mastering display color primaries : Display P3

  43. Mastering display luminance : min: 0.0020 cd/m2, max: 1000 cd/m2

  44. Maximum Content Light Level : 739 cd/m2

  45. Maximum Frame-Average Light Level : 331 cd/m2


  46. Audio

  47. ID : 2

  48. Format : DTS XLL

  49. Format/Info : Digital Theater Systems

  50. Commercial name : DTS-HD Master Audio

  51. Codec ID : A_DTS

  52. Duration : 1 h 48 min

  53. Bit rate mode : Variable

  54. Bit rate : 3 982 kb/s

  55. Channel(s) : 6 channels

  56. Channel layout : C L R Ls Rs LFE

  57. Sampling rate : 48.0 kHz

  58. Frame rate : 93.750 FPS (512 SPF)

  59. Bit depth : 24 bits

  60. Compression mode : Lossless

  61. Stream size : 3.02 GiB (18%)

  62. Title : English

  63. Language : English

  64. Default : Yes

  65. Forced : No


  66. Text #1

  67. ID : 3

  68. Format : PGS

  69. Muxing mode : zlib

  70. Codec ID : S_HDMV/PGS

  71. Codec ID/Info : Picture based subtitle format used on BDs/HD-DVDs

  72. Duration : 1 h 43 min

  73. Bit rate : 19.8 kb/s

  74. Count of elements : 1834

  75. Stream size : 14.7 MiB (0%)

  76. Title : CHS

  77. Language : Chinese

  78. Default : Yes

  79. Forced : No


  80. Text #2

  81. ID : 4

  82. Format : PGS

  83. Muxing mode : zlib

  84. Codec ID : S_HDMV/PGS

  85. Codec ID/Info : Picture based subtitle format used on BDs/HD-DVDs

  86. Duration : 1 h 43 min

  87. Bit rate : 20.4 kb/s

  88. Count of elements : 1834

  89. Stream size : 15.1 MiB (0%)

  90. Title : CHT

  91. Language : Chinese

  92. Default : No

  93. Forced : No


  94. Text #3

  95. ID : 5

  96. Format : PGS

  97. Muxing mode : zlib

  98. Codec ID : S_HDMV/PGS

  99. Codec ID/Info : Picture based subtitle format used on BDs/HD-DVDs

  100. Duration : 1 h 43 min

  101. Bit rate : 34.1 kb/s

  102. Count of elements : 1766

  103. Stream size : 25.3 MiB (0%)

  104. Title : CHS&ENG

  105. Language : Chinese

  106. Default : No

  107. Forced : No


  108. Text #4

  109. ID : 6

  110. Format : PGS

  111. Muxing mode : zlib

  112. Codec ID : S_HDMV/PGS

  113. Codec ID/Info : Picture based subtitle format used on BDs/HD-DVDs

  114. Duration : 1 h 43 min

  115. Bit rate : 34.8 kb/s

  116. Count of elements : 1766

  117. Stream size : 25.7 MiB (0%)

  118. Title : CHT&ENG

  119. Language : Chinese

  120. Default : No

  121. Forced : No


  122. Menu

  123. 00:00:00.000 : en:Chapter 01

  124. 00:08:11.750 : en:Chapter 02

  125. 00:18:44.708 : en:Chapter 03

  126. 00:26:06.792 : en:Chapter 04

  127. 00:32:52.792 : en:Chapter 05

  128. 00:40:58.500 : en:Chapter 06

  129. 00:54:48.083 : en:Chapter 07

  130. 01:06:00.792 : en:Chapter 08

  131. 01:15:18.958 : en:Chapter 09

  132. 01:23:07.708 : en:Chapter 10

  133. 01:36:08.000 : en:Chapter 11

  134. 01:44:57.250 : en:Chapter 12


文件下载


除非特别注明,本文『破茧威龙[中文字幕].Lock.Up.1989.2160p.HDR.UHD.BluRay.DTS-HD.MA.5.1.x265-10bit 16.46GB』来源于互联网机器人自动抓取,非本站原创。 浮游电影网不对本文拥有版权,如有侵犯,请联系邮箱:fuyouu#yandex.com[#换成@]投诉。我们会在15个工作日内删除。 但烦请转载时请标明出处:“本文转载于『浮游电影网』,原文地址:https://www.fuyouu.com/14524.html

评论吧骚年!

发表你的见解   

昵称*

E-mail*(建议输入,以便收到博主回复的提示邮件)

验证码*

您可以使用eMule或eMule Mod(Windows)、aMule(Win、Linux、Mac)等软件下载eD2k链接。。
eMule收藏集(.emulecollection)文件是您选中的所有链接的列表文件。eMule可以直接下载它们。
按住SHIFT键选择可以选中多个选择框。
可用文件名和大小选择器来选择文件。
文件名选择器帮您根据文件名称或后缀来选择文件。不分大小写。
符号使用:
和:空格( )、+
不包含:-
或:|
转义:一对英文引号("");
匹配开头:^
匹配结尾:$
例如:
选中所有名称中包含有“eMule”或“0.49c”字眼,但不包含有“exe”字眼的:emule|0.49c -exe
选中所有名称的开头是“eMule”,结尾是“0.49c”的:^emule 0.49c$
选中所有名称中带有“eMule 0.49c”的(必须是“eMule 0.49c”,中间没有别的字符,不能是“eMule fake 0.49c”),需要转义:"emule 0.49c"
大小选择器帮您根据文件大小选择文件。