当前位置: 首页 >> 国产电影 >> 盲探[国语配音].Blind.Detective.2013.1080p.BluRay.TrueHD.7.1.3Audio.x265-10bit 16.04GB >> 正文

盲探[国语配音].Blind.Detective.2013.1080p.BluRay.TrueHD.7.1.3Audio.x265-10bit 16.04GB

2021年09月22日 22:15:38     电影发布:来源于网络     电影分类:国产电影     评论(0)    

盲探[国语配音].Blind.Detective.2013.1080p.BluRay.TrueHD.7.1.3Audio.x265 10bit 16.04GB 悬疑片 犯罪片 惊悚片 爱情片 喜剧片 国产电影  第1张◎译 名 盲探 / Blind Detective

◎年 代 2013

◎产 地 中国大陆 / 中国香港

◎类 别 喜剧 / 爱情 / 悬疑 / 惊悚 / 犯罪

◎语 言 粤语 / 汉语普通话

◎上映日期 2013-07-04(中国大陆/中国香港) / 2013-05-19(戛纳电影节)

◎IMDb链接 https://www.imdb.com/title/tt2332707/

◎豆瓣评分 7.1/10 (199699人评价)

◎豆瓣链接 https://movie.douban.com/subject/6872273/

◎片 长 129分钟

◎导 演 杜琪峰 Johnnie To (id:1160186)

◎编 剧 韦家辉 Ka-Fai Wai (id:1017843)

游乃海 Nai-Hoi Yau (id:1161310)

陈伟斌 Ryker Chan (id:1326900)

余曦 Xi Yu (id:1327440)

杜祈知 Kei-Chi To (id:1343694)

◎演 员 刘德华 Andy Lau (id:1054424)

郑秀文 Sammi Cheng (id:1023284)

郭涛 Tao Guo (id:1274274)

高圆圆 Yuanyuan Gao (id:1018980)

王紫逸 Ziyi Wang (id:1317348)

郎月婷 Yueting Lang (id:1330484)

卢海鹏 Hoi-Pang Lo (id:1038772)

黄文慧 Man-Wai Wong (id:1330485)

林雪 Suet Lam (id:1274279)

姜皓文 Philip Keung Ho-Man (id:1317884)

陈珈颖 Kerry Chan (id:1388041)

李敏 Ranya Lee (id:1355516)

冼色丽 Seli Xian (id:1275651)

麦长青 Cheung-Ching Mak (id:1274580)

郑可琳 Ruby Cheng (id:1437966)

李泳珊 Rain Lee (id:1433226)

王菀之 Ivana Wong (id:1315465)

佘卓颖 Eva Shi (id:1360178)

吴幸美 Amy Ng (id:1353427)

洪伟良 Wai Leung Hung (id:1365224)

甄懋强 Ronald Yan (id:1364264)

刘浩龙 Wilfred Lau (id:1275225)

何果轩 Guoxuan He (id:1330794)

曾守明 Sau Ming Tsang (id:1333246)

姚莹莹 Eileen Yeow (id:1275434)

李成昌 Shing-Cheung Lee (id:1315069)

秦煌 Wong Chun (id:1274570)

朱咪咪 Mimi Chu (id:1275715)

鲁芬 Fun Lo (id:1316723)

徐志雄 Terence Tsui (id:1331330)

马蹄露 Celine Ma Tai-Lau (id:1318726)

李蔓莹 Renee Li (id:1377359)

詹植芝 Tsim Chlk Chi (id:1399080)

车婉婉 Stephanie Che (id:1017188)

杨受成 Albert Yeung (id:1313455)

宋岱 Dai Song (id:1395689)

林建岳 Peter Lam (id:1340495)

林炳坤 Bingkun Lin (id:1350348)

利雅博 Albert Lee (id:1326683)

李少红 Shaohong Li (id:1274842)

何丽嫦 Lorraine Ho (id:1418364)

杜琪峰 Johnnie To (id:1160186)

郑兆强 Siu-keung Cheng (id:1280597)

余家安 Bruce Yu (id:1301555)

郑保瑞 Pou-Soi Cheang (id:1274240)

佘卓颖 Eva Shi (id:1360178)

◎标 签 香港 / 喜剧 / 悬疑 / 犯罪 / 爱情 / 警匪 / 2013 / 搞笑

◎简 介

曾是“O记”杰出探员的庄士敦(刘德华 饰),四年前因某起案件双目失明,而今眼前一片漆黑的他仍乐此不疲捡起沉疴多年且悬而未决的无头之案调查,在给受害者讨回公道的同时赢得丰厚的悬红报酬。他判案手法独特,擅长在头脑中原原本本还原当事人所处的场景和持有的心情来追查线索。在追查“通渠水伤人事件”疑犯的过程中,庄偶然结识当年“O记”好哥们司徒法宝(郭涛 饰)的下属何家彤(郑秀文 饰)。何虽然办案经验不足,但身手了得,关键时刻救下了正处在危急关头的庄。她对这位名震一时的“破案之神”佩服得五体投地,因此请求庄Sir接手帮忙调查许多年前失踪的好友小敏的下落。

看在百万赏金的份上,庄点头应允。在短短十天内,庄Sir和何家彤同时周旋在几宗案件之间,每起案件的真相交替浮出水面,而他们彼此的心也在生死考验的过程中渐渐拉近……

◎获奖情况 (共11项)

第50届台北金马影展 (2013)

金马奖 最佳女主角(提名)

└──郑秀文 (id:1023284)

第33届香港电影金像奖 (2014)

最佳编剧(提名)

最佳女主角(提名)

└──郑秀文 (id:1023284)

最佳原创电影歌曲(提名)

第14届华语电影传媒大奖 (2014)

最佳女主角(提名)

└──郑秀文 (id:1023284)

最佳编剧(提名)

第4届豆瓣电影鑫像奖 (2014)

鑫豆单元 最佳影片(华语)(提名)

鑫豆单元 最佳男演员(华语)(提名)

└──刘德华 (id:1054424)

鑫豆单元 最佳女演员(华语)(提名)

└──郑秀文 (id:1023284)

鑫豆单元 最佳喜剧片(提名)

鑫豆单元 最佳爱情片(提名)

  1. ##### MediaInfo ######

  2. General

  3. Unique ID : 209117018430289454007502881378419674916 (0x9D5279074BED9BBEE5CAB47059590F24)

  4. Complete name : Blind[email protected]BBQDDQ.COM.mkv

  5. Format : Matroska

  6. Format version : Version 4

  7. File size : 16.0 GiB

  8. Duration : 2 h 9 min

  9. Overall bit rate mode : Variable

  10. Overall bit rate : 17.7 Mb/s

  11. Movie name : Blind Detective 2013 1080p BluRay TrueHD 7.1 3Audio [email protected]

  12. Encoded date : UTC 2021-09-21 20:32:40

  13. Writing application : mkvmerge v38.0.0 ('The Silent Type') 64-bit

  14. Writing library : libebml v1.3.9 + libmatroska v1.5.2


  15. Video

  16. ID : 1

  17. Format : HEVC

  18. Format/Info : High Efficiency Video Coding

  19. Format profile : Main [email protected]@High

  20. Codec ID : V_MPEGH/ISO/HEVC

  21. Duration : 2 h 9 min

  22. Bit rate : 6 020 kb/s

  23. Width : 1 920 pixels

  24. Height : 804 pixels

  25. Display aspect ratio : 2.40:1

  26. Frame rate mode : Constant

  27. Frame rate : 24.000 FPS

  28. Color space : YUV

  29. Chroma subsampling : 4:2:0

  30. Bit depth : 10 bits

  31. Bits/(Pixel*Frame) : 0.162

  32. Stream size : 5.45 GiB (34%)

  33. Title : [email protected]

  34. Writing library : x265 - H.265/HEVC codec

  35. Default : Yes

  36. Forced : No


  37. Audio #1

  38. ID : 2

  39. Format : MLP FBA

  40. Format/Info : Meridian Lossless Packing FBA

  41. Commercial name : Dolby TrueHD

  42. Codec ID : A_TRUEHD

  43. Duration : 2 h 9 min

  44. Bit rate mode : Variable

  45. Bit rate : 3 534 kb/s

  46. Maximum bit rate : 4 986 kb/s

  47. Channel(s) : 8 channels

  48. Channel layout : L R C LFE Ls Rs Lb Rb

  49. Sampling rate : 48.0 kHz

  50. Frame rate : 1 200.000 FPS (40 SPF)

  51. Compression mode : Lossless

  52. Stream size : 3.20 GiB (20%)

  53. Title : Mandarin

  54. Language : Chinese

  55. Default : Yes

  56. Forced : No


  57. Audio #2

  58. ID : 3

  59. Format : AC-3

  60. Format/Info : Audio Coding 3

  61. Commercial name : Dolby Digital

  62. Codec ID : A_AC3

  63. Duration : 2 h 9 min

  64. Bit rate mode : Constant

  65. Bit rate : 640 kb/s

  66. Channel(s) : 6 channels

  67. Channel layout : L R C LFE Ls Rs

  68. Sampling rate : 48.0 kHz

  69. Frame rate : 31.250 FPS (1536 SPF)

  70. Compression mode : Lossy

  71. Stream size : 593 MiB (4%)

  72. Service kind : Complete Main

  73. Default : No

  74. Forced : No


  75. Audio #3

  76. ID : 4

  77. Format : MLP FBA

  78. Format/Info : Meridian Lossless Packing FBA

  79. Commercial name : Dolby TrueHD

  80. Codec ID : A_TRUEHD

  81. Duration : 2 h 9 min

  82. Bit rate mode : Variable

  83. Bit rate : 3 704 kb/s

  84. Maximum bit rate : 5 079 kb/s

  85. Channel(s) : 8 channels

  86. Channel layout : L R C LFE Ls Rs Lb Rb

  87. Sampling rate : 48.0 kHz

  88. Frame rate : 1 200.000 FPS (40 SPF)

  89. Compression mode : Lossless

  90. Stream size : 3.35 GiB (21%)

  91. Title : Cantonese

  92. Language : Chinese

  93. Default : No

  94. Forced : No


  95. Audio #4

  96. ID : 5

  97. Format : AC-3

  98. Format/Info : Audio Coding 3

  99. Commercial name : Dolby Digital

  100. Codec ID : A_AC3

  101. Duration : 2 h 9 min

  102. Bit rate mode : Constant

  103. Bit rate : 640 kb/s

  104. Channel(s) : 6 channels

  105. Channel layout : L R C LFE Ls Rs

  106. Sampling rate : 48.0 kHz

  107. Frame rate : 31.250 FPS (1536 SPF)

  108. Compression mode : Lossy

  109. Stream size : 593 MiB (4%)

  110. Service kind : Complete Main

  111. Default : No

  112. Forced : No


  113. Audio #5

  114. ID : 6

  115. Format : DTS XLL

  116. Format/Info : Digital Theater Systems

  117. Commercial name : DTS-HD Master Audio

  118. Codec ID : A_DTS

  119. Duration : 2 h 9 min

  120. Bit rate mode : Variable

  121. Bit rate : 2 985 kb/s

  122. Channel(s) : 8 channels

  123. Channel layout : C L R LFE Lb Rb Lss Rss

  124. Sampling rate : 48.0 kHz

  125. Frame rate : 93.750 FPS (512 SPF)

  126. Bit depth : 16 bits

  127. Compression mode : Lossless

  128. Stream size : 2.70 GiB (17%)

  129. Title : Cantonese

  130. Language : Chinese

  131. Default : No

  132. Forced : No


  133. Text #1

  134. ID : 7

  135. Format : PGS

  136. Muxing mode : zlib

  137. Codec ID : S_HDMV/PGS

  138. Codec ID/Info : Picture based subtitle format used on BDs/HD-DVDs

  139. Duration : 2 h 4 min

  140. Bit rate : 24.1 kb/s

  141. Count of elements : 3484

  142. Stream size : 21.4 MiB (0%)

  143. Title : CHS

  144. Language : Chinese

  145. Default : Yes

  146. Forced : No


  147. Text #2

  148. ID : 8

  149. Format : PGS

  150. Muxing mode : zlib

  151. Codec ID : S_HDMV/PGS

  152. Codec ID/Info : Picture based subtitle format used on BDs/HD-DVDs

  153. Duration : 2 h 4 min

  154. Bit rate : 26.3 kb/s

  155. Count of elements : 3484

  156. Stream size : 23.4 MiB (0%)

  157. Title : CHT

  158. Language : Chinese

  159. Default : No

  160. Forced : No


  161. Text #3

  162. ID : 9

  163. Format : PGS

  164. Muxing mode : zlib

  165. Codec ID : S_HDMV/PGS

  166. Codec ID/Info : Picture based subtitle format used on BDs/HD-DVDs

  167. Duration : 2 h 4 min

  168. Bit rate : 22.9 kb/s

  169. Count of elements : 3480

  170. Stream size : 20.4 MiB (0%)

  171. Title : CHS

  172. Language : Chinese

  173. Default : No

  174. Forced : No


  175. Text #4

  176. ID : 10

  177. Format : PGS

  178. Muxing mode : zlib

  179. Codec ID : S_HDMV/PGS

  180. Codec ID/Info : Picture based subtitle format used on BDs/HD-DVDs

  181. Duration : 2 h 4 min

  182. Bit rate : 23.9 kb/s

  183. Count of elements : 3480

  184. Stream size : 21.2 MiB (0%)

  185. Title : CHT

  186. Language : Chinese

  187. Default : No

  188. Forced : No


  189. Menu

  190. 00:00:00.000 : en:Chapter 01

  191. 00:07:04.500 : en:Chapter 02

  192. 00:14:04.750 : en:Chapter 03

  193. 00:17:58.292 : en:Chapter 04

  194. 00:28:47.375 : en:Chapter 05

  195. 00:34:18.708 : en:Chapter 06

  196. 00:39:54.500 : en:Chapter 07

  197. 00:46:30.500 : en:Chapter 08

  198. 00:52:18.292 : en:Chapter 09

  199. 00:56:58.667 : en:Chapter 10

  200. 01:05:31.375 : en:Chapter 11

  201. 01:11:26.292 : en:Chapter 12

  202. 01:18:12.458 : en:Chapter 13

  203. 01:25:37.750 : en:Chapter 14

  204. 01:32:00.042 : en:Chapter 15

  205. 01:39:13.083 : en:Chapter 16

  206. 01:46:16.750 : en:Chapter 17

  207. 01:49:36.917 : en:Chapter 18

  208. 01:55:09.500 : en:Chapter 19

  209. 02:06:34.333 : en:Chapter 20


文件下载


除非特别注明,本文『盲探[国语配音].Blind.Detective.2013.1080p.BluRay.TrueHD.7.1.3Audio.x265-10bit 16.04GB』来源于互联网机器人自动抓取,非本站原创。 浮游电影网不对本文拥有版权,如有侵犯,请联系邮箱:fuyouu#yandex.com[#换成@]投诉。我们会在15个工作日内删除。 但烦请转载时请标明出处:“本文转载于『浮游电影网』,原文地址:https://www.fuyouu.com/14503.html

评论吧骚年!

发表你的见解   

昵称*

E-mail*(建议输入,以便收到博主回复的提示邮件)

验证码*

您可以使用eMule或eMule Mod(Windows)、aMule(Win、Linux、Mac)等软件下载eD2k链接。。
eMule收藏集(.emulecollection)文件是您选中的所有链接的列表文件。eMule可以直接下载它们。
按住SHIFT键选择可以选中多个选择框。
可用文件名和大小选择器来选择文件。
文件名选择器帮您根据文件名称或后缀来选择文件。不分大小写。
符号使用:
和:空格( )、+
不包含:-
或:|
转义:一对英文引号("");
匹配开头:^
匹配结尾:$
例如:
选中所有名称中包含有“eMule”或“0.49c”字眼,但不包含有“exe”字眼的:emule|0.49c -exe
选中所有名称的开头是“eMule”,结尾是“0.49c”的:^emule 0.49c$
选中所有名称中带有“eMule 0.49c”的(必须是“eMule 0.49c”,中间没有别的字符,不能是“eMule fake 0.49c”),需要转义:"emule 0.49c"
大小选择器帮您根据文件大小选择文件。