当前位置: 首页 >> 国产电影 >> 血战虎门[国语配音/中文字幕].Destruction.Of.Opium.At.Humen.2021.4K.WEB-DL.H265.DDP2.0 2.01GB >> 正文

血战虎门[国语配音/中文字幕].Destruction.Of.Opium.At.Humen.2021.4K.WEB-DL.H265.DDP2.0 2.01GB

2021年09月22日 22:11:50     电影发布:来源于网络     电影分类:国产电影     评论(0)    

血战虎门[国语配音/中文字幕].Destruction.Of.Opium.At.Humen.2021.4K.WEB DL.H265.DDP2.0 2.01GB 历史 动作片 国产电影  第1张

◎译 名 血战虎门 / 虎门销烟

◎年 代 2021

◎产 地 中国大陆

◎类 别 动作 / 历史

◎语 言 汉语普通话

◎上映日期 2021-09-20(中国大陆网络)

◎IMDb链接 https://www.imdb.com/title//

◎豆瓣链接 https://movie.douban.com/subject/35067563/

◎片 长 90分钟

◎导 演 张哲 Zhe Zhang (id:1427760)

◎编 剧 杨秉佳 Bingjia Yang (id:1323946)

◎演 员 谢苗 Miu Tse (id:1314627)

姚橹 Lu Yao (id:1274497)

杜玉明 Yuming Du (id:1317188)

张梓杉 Zishan Zhang (id:1461534)

曲羿成 Yicheng Qu (id:1459974)

张皓森 Haosen Zhang (id:1408823)

刘峰超 Fengchao Liu (id:1332806)

南思恺 Sikai Nan (id:1411811)

金柯 Ke Jin (id:1335136)

佟俊 Jun Tong (id:1461539)

◎标 签 历史 / 动作 / 正能量 / 中国爱国 / 真实事件改编 / 谢苗 / 社会 / 网大

◎简 介

清末,鸦片被英商包装成“福寿膏”大肆销往中国,无数国民深受其害。广州城内烟馆遍地开花,烟鬼们趋之若鹜,河底沉尸、卖子换烟之事屡见不鲜,家破人亡者不计其数。钦差大臣林则徐(姚橹 饰)奉旨南下销烟,却因触及鸦片背后官商勾结的黑色利益链而屡遭报复,暗杀刺客、人肉炸弹......遭困之际,民间志士华继良(谢苗 饰)联合“街头老夫子”小野(张皓森 饰)、“换皮大师”阿泰(南思恺 饰)、“将门巾帼”安木兰(张梓杉 饰)兵分多路,深入虎穴,与大烟贩何世清(杜玉明 饰)斡旋交易。不料,销烟在即,英国以强硬外交手段介入向清政府施压,而此时心有疑虑的华继良竟选择背叛林则徐,危机一触即发......

  1. ##### MediaInfo ######

  2. General

  3. Unique ID : 245571606671411797319173040282103496676 (0xB8BF5EFEF759968B424009630358BFE4)

  4. Complete name : 血战虎门[email protected]BBQDDQ.COM.mkv

  5. Format : Matroska

  6. Format version : Version 4

  7. File size : 2.01 GiB

  8. Duration : 1 h 30 min

  9. Overall bit rate : 3 175 kb/s

  10. Encoded date : UTC 2021-09-21 17:07:39

  11. Writing application : mkvmerge v61.0.0 ('So') 64-bit

  12. Writing library : libebml v1.4.2 + libmatroska v1.6.4


  13. Video

  14. ID : 1

  15. Format : HEVC

  16. Format/Info : High Efficiency Video Coding

  17. Format profile : [email protected]@Main

  18. Codec ID : V_MPEGH/ISO/HEVC

  19. Duration : 1 h 30 min

  20. Bit rate : 3 077 kb/s

  21. Width : 3 840 pixels

  22. Height : 1 608 pixels

  23. Display aspect ratio : 2.40:1

  24. Frame rate mode : Constant

  25. Frame rate : 25.000 FPS

  26. Color space : YUV

  27. Chroma subsampling : 4:2:0

  28. Bit depth : 8 bits

  29. Bits/(Pixel*Frame) : 0.020

  30. Stream size : 1.95 GiB (97%)

  31. Default : Yes

  32. Forced : No


  33. Audio

  34. ID : 2

  35. Format : E-AC-3

  36. Format/Info : Enhanced AC-3

  37. Commercial name : Dolby Digital Plus

  38. Codec ID : A_EAC3

  39. Duration : 1 h 30 min

  40. Bit rate mode : Constant

  41. Bit rate : 96.0 kb/s

  42. Channel(s) : 2 channels

  43. Channel layout : L R

  44. Sampling rate : 48.0 kHz

  45. Frame rate : 31.250 FPS (1536 SPF)

  46. Compression mode : Lossy

  47. Stream size : 62.2 MiB (3%)

  48. Service kind : Complete Main

  49. Default : Yes

  50. Forced : No


文件下载


除非特别注明,本文『血战虎门[国语配音/中文字幕].Destruction.Of.Opium.At.Humen.2021.4K.WEB-DL.H265.DDP2.0 2.01GB』来源于互联网机器人自动抓取,非本站原创。 浮游电影网不对本文拥有版权,如有侵犯,请联系邮箱:fuyouu#yandex.com[#换成@]投诉。我们会在15个工作日内删除。 但烦请转载时请标明出处:“本文转载于『浮游电影网』,原文地址:https://www.fuyouu.com/14502.html

评论吧骚年!

发表你的见解   

昵称*

E-mail*(建议输入,以便收到博主回复的提示邮件)

验证码*

您可以使用eMule或eMule Mod(Windows)、aMule(Win、Linux、Mac)等软件下载eD2k链接。。
eMule收藏集(.emulecollection)文件是您选中的所有链接的列表文件。eMule可以直接下载它们。
按住SHIFT键选择可以选中多个选择框。
可用文件名和大小选择器来选择文件。
文件名选择器帮您根据文件名称或后缀来选择文件。不分大小写。
符号使用:
和:空格( )、+
不包含:-
或:|
转义:一对英文引号("");
匹配开头:^
匹配结尾:$
例如:
选中所有名称中包含有“eMule”或“0.49c”字眼,但不包含有“exe”字眼的:emule|0.49c -exe
选中所有名称的开头是“eMule”,结尾是“0.49c”的:^emule 0.49c$
选中所有名称中带有“eMule 0.49c”的(必须是“eMule 0.49c”,中间没有别的字符,不能是“eMule fake 0.49c”),需要转义:"emule 0.49c"
大小选择器帮您根据文件大小选择文件。