当前位置: 首页 >> 日韩电影 >> 无用的我看见了天[中文字幕].Cowards.Who.Looked.to.the.Sky.2012.Repack.1080p.NF.WEB-DL.x264.DDP5.1 6.16GB >> 正文

无用的我看见了天[中文字幕].Cowards.Who.Looked.to.the.Sky.2012.Repack.1080p.NF.WEB-DL.x264.DDP5.1 6.16GB

2021年09月22日 22:08:36     电影发布:来源于网络     电影分类:日韩电影     评论(0)    

无用的我看见了天[中文字幕].Cowards.Who.Looked.to.the.Sky.2012.Repack.1080p.NF.WEB DL.x264.DDP5.1 6.16GB 剧情片 日韩电影  第1张

◎译 名 无用的我看见了天 / 不中用的我仰望天空(台) / Cowards Who Looked to the Sky

◎片 名 ふがいない僕は空を見た

◎年 代 2012

◎产 地 日本

◎类 别 剧情

◎语 言 日语

◎上映日期 2012-11-17

◎IMDb链接 https://www.imdb.com/title/tt2139903/

◎豆瓣评分 6.4/10 (649人评价)

◎豆瓣链接 https://movie.douban.com/subject/7053706/

◎片 长 142分钟

◎导 演 棚田由纪 Yuki Tanada (id:1319228)

◎编 剧 向井康介 K?suke Mukai (id:1015870)

◎演 员 永山绚斗 Kento Nagayama (id:1275308)

田畑智子 Tomoko Tabata (id:1017067)

洼田正孝 Masataka Kubota (id:1314832)

小篠恵奈 Ena Koshino (id:1332156)

三浦贵大 Takahiro Miura (id:1315155)

银粉蝶 Guin Poon Chaw (id:1323519)

原田美枝子 Mieko Harada (id:1014550)

山本政志 Masashi Yamamoto (id:1006113)

田中美晴 Miharu Tanaka (id:1345338)

西田奈津美 Natsumi Nishida (id:1275642)

吉田羊 Y? Yoshida (id:1316808)

山本浩司 Hiroshi Yamamoto (id:1186310)

柴田柚菜 Yuna Shibata (id:1350324)

◎标 签 日本 / 日本电影 / 永山绚斗 / 2012 / 窪田正孝 / 日影 / 田畑智子 / 电影

◎简 介

高中生齐藤卓巳(永山绚斗 饰)的家境优渥,无忧无虑。在参加某动漫展的活动上,他结识了热爱Cosplay的家庭主妇冈本里美(田畑智子 饰),二人的人生由此发生改变。里美婚后多年从未生育,婆婆言语刻薄,不留情面,丈夫又全然不为自己着想,难以依靠。许是这份令人透不过起来的巨大压力,让里美和卓巳发展成一段不伦之恋。她喜欢将彼此打扮成动漫人物,沉浸在短暂而虚幻的快乐中。卓巳一度因同学松永七菜(田中美晴 饰)的原因向里美提出分手,可终究无法忘怀这个这个在他心中留下烙印的女人。他们越缠越深,命运的彼方也愈加黯淡……

本片根据女性作家窪美澄的同名小说改编,并荣获2012年日本电影旬报十佳影片第七名。

  1. ##### MediaInfo ######

  2. General

  3. Unique ID : 190844737406331632523517563694167948745 (0x8F935C04E9931D259A707D05FAD0FDC9)

  4. Complete name : 无用的我看见了天.Cowards.Who.[email protected]BBQDDQ.COM.mkv

  5. Format : Matroska

  6. Format version : Version 4

  7. File size : 6.16 GiB

  8. Duration : 2 h 22 min

  9. Overall bit rate mode : Variable

  10. Overall bit rate : 6 206 kb/s

  11. Encoded date : UTC 2021-09-19 06:42:35

  12. Writing application : mkvmerge v61.0.0 ('So') 64-bit

  13. Writing library : libebml v1.4.2 + libmatroska v1.6.4


  14. Video

  15. ID : 1

  16. Format : AVC

  17. Format/Info : Advanced Video Codec

  18. Format profile : [email protected]

  19. Format settings : CABAC / 4 Ref Frames

  20. Format settings, CABAC : Yes

  21. Format settings, Reference frames : 4 frames

  22. Codec ID : V_MPEG4/ISO/AVC

  23. Duration : 2 h 22 min

  24. Bit rate mode : Variable

  25. Bit rate : 5 564 kb/s

  26. Maximum bit rate : 20.0 Mb/s

  27. Width : 1 920 pixels

  28. Height : 1 080 pixels

  29. Display aspect ratio : 16:9

  30. Frame rate mode : Constant

  31. Frame rate : 23.976 (24000/1001/53354) FPS

  32. Color space : YUV

  33. Chroma subsampling : 4:2:0

  34. Bit depth : 8 bits

  35. Scan type : Progressive

  36. Bits/(Pixel*Frame) : 0.112

  37. Stream size : 5.52 GiB (90%)

  38. Writing library : x264 core 148 r2717 0d2410d

  39. Encoding settings : cabac=1 / ref=4 / deblock=1:0:0 / analyse=0x3:0x111 / me=umh / subme=10 / psy=1 / psy_rd=1.00:0.00 / mixed_ref=1 / me_range=120 / chroma_me=1 / trellis=2 / 8x8dct=1 / cqm=0 / deadzone=21,11 / fast_pskip=1 / chroma_qp_offset=-2 / threads=8 / lookahead_threads=2 / sliced_threads=0 / nr=0 / decimate=1 / interlaced=0 / NTMzNTQ= / bluray_compat=0 / stitchable=1 / constrained_intra=0 / bframes=16 / b_pyramid=2 / b_adapt=2 / b_bias=0 / direct=3 / weightb=1 / open_gop=0 / weightp=2 / keyint=240 / keyint_min=121 / scenecut=0 / intra_refresh=0 / rc_lookahead=240 / rc=crf / mbtree=1 / crf=16.0 / qcomp=0.50 / qpmin=6 / qpmax=51 / qpstep=4 / vbv_maxrate=20000 / vbv_bufsize=25000 / crf_max=0.0 / nal_hrd=vbr / filler=0 / NTMzNTQ=LmsMAP37EqsCpk / ip_ratio=1.40 / aq=1:0.80

  40. Default : Yes

  41. Forced : No


  42. Audio

  43. ID : 2

  44. Format : E-AC-3

  45. Format/Info : Enhanced AC-3

  46. Commercial name : Dolby Digital Plus

  47. Codec ID : A_EAC3

  48. Duration : 2 h 22 min

  49. Bit rate mode : Constant

  50. Bit rate : 640 kb/s

  51. Channel(s) : 6 channels

  52. Channel layout : L R C LFE Ls Rs

  53. Sampling rate : 48.0 kHz

  54. Frame rate : 31.250 FPS (1536 SPF)

  55. Compression mode : Lossy

  56. Stream size : 650 MiB (10%)

  57. Language : Japanese

  58. Service kind : Complete Main

  59. Default : Yes

  60. Forced : No


  61. Text #1

  62. ID : 3

  63. Format : UTF-8

  64. Codec ID : S_TEXT/UTF8

  65. Codec ID/Info : UTF-8 Plain Text

  66. Duration : 2 h 15 min

  67. Bit rate : 26 b/s

  68. Count of elements : 1295

  69. Stream size : 26.7 KiB (0%)

  70. Language : English

  71. Default : Yes

  72. Forced : No


  73. Text #2

  74. ID : 4

  75. Format : UTF-8

  76. Codec ID : S_TEXT/UTF8

  77. Codec ID/Info : UTF-8 Plain Text

  78. Duration : 2 h 20 min

  79. Bit rate : 25 b/s

  80. Count of elements : 1294

  81. Stream size : 26.0 KiB (0%)

  82. Title : 简体中文

  83. Language : Chinese

  84. Default : Yes

  85. Forced : Yes


  86. Text #3

  87. ID : 5

  88. Format : UTF-8

  89. Codec ID : S_TEXT/UTF8

  90. Codec ID/Info : UTF-8 Plain Text

  91. Duration : 2 h 20 min

  92. Bit rate : 24 b/s

  93. Count of elements : 1279

  94. Stream size : 25.3 KiB (0%)

  95. Title : 繁体中文

  96. Language : Chinese

  97. Default : Yes

  98. Forced : No


文件下载


除非特别注明,本文『无用的我看见了天[中文字幕].Cowards.Who.Looked.to.the.Sky.2012.Repack.1080p.NF.WEB-DL.x264.DDP5.1 6.16GB』来源于互联网机器人自动抓取,非本站原创。 浮游电影网不对本文拥有版权,如有侵犯,请联系邮箱:fuyouu#yandex.com[#换成@]投诉。我们会在15个工作日内删除。 但烦请转载时请标明出处:“本文转载于『浮游电影网』,原文地址:https://www.fuyouu.com/14499.html

评论吧骚年!

发表你的见解   

昵称*

E-mail*(建议输入,以便收到博主回复的提示邮件)

验证码*

您可以使用eMule或eMule Mod(Windows)、aMule(Win、Linux、Mac)等软件下载eD2k链接。。
eMule收藏集(.emulecollection)文件是您选中的所有链接的列表文件。eMule可以直接下载它们。
按住SHIFT键选择可以选中多个选择框。
可用文件名和大小选择器来选择文件。
文件名选择器帮您根据文件名称或后缀来选择文件。不分大小写。
符号使用:
和:空格( )、+
不包含:-
或:|
转义:一对英文引号("");
匹配开头:^
匹配结尾:$
例如:
选中所有名称中包含有“eMule”或“0.49c”字眼,但不包含有“exe”字眼的:emule|0.49c -exe
选中所有名称的开头是“eMule”,结尾是“0.49c”的:^emule 0.49c$
选中所有名称中带有“eMule 0.49c”的(必须是“eMule 0.49c”,中间没有别的字符,不能是“eMule fake 0.49c”),需要转义:"emule 0.49c"
大小选择器帮您根据文件大小选择文件。