当前位置: 首页 >> 海外电影 >> 克劳德夫人[中文字幕].Madame.Claude.2021.Repack.1080p.NF.WEB-DL.x264.DDP5.1 2.72GB >> 正文

克劳德夫人[中文字幕].Madame.Claude.2021.Repack.1080p.NF.WEB-DL.x264.DDP5.1 2.72GB

2021年09月22日 22:06:54     电影发布:来源于网络     电影分类:海外电影     评论(0)    

克劳德夫人[中文字幕].Madame.Claude.2021.Repack.1080p.NF.WEB DL.x264.DDP5.1 2.72GB 传记 爱情片 剧情片 海外电影  第1张

◎译 名 克劳德夫人 / 克劳蒂夫人

◎片 名 Madame Claude

◎年 代 2021

◎产 地 法国

◎类 别 剧情 / 爱情 / 传记

◎语 言 法语

◎上映日期 2021-04-02(法国网络)

◎IMDb链接 https://www.imdb.com/title/tt10307724/

◎豆瓣评分 6.1/10 (875人评价)

◎豆瓣链接 https://movie.douban.com/subject/33447572/

◎片 长 112分钟

◎导 演 西尔薇·维尔海迪 Sylvie Verheyde (id:1299988)

◎编 剧 西尔薇·维尔海迪 Sylvie Verheyde (id:1299988)

◎演 员 卡罗勒·罗谢 Karole Rocher (id:1362026)

加朗斯·马里利埃 Garance Marillier (id:1368368)

罗什迪·泽姆 Roschdy Zem (id:1028097)

皮埃尔·德隆尚 Pierre de Ladonchamps (id:1329007)

莱娅·奥普莱 Liah O'Prey (id:1331221)

保罗·艾米 Paul Hamy (id:1338358)

米兰妮·让帕诺米 Mylène Jampano? (id:1009491)

阿弗西娅·埃尔奇 Hafsia Herzi (id:1005260)

里贾纳·阿尼基 Regina Anikiy (id:1455355)

安娜贝尔·贝尔蒙多 Annabelle Belmondo (id:1455357)

约瑟芬·德·拉·波美 Joséphine de La Baume (id:1317471)

吉娜·希门尼斯 Gina Jimenez (id:1455358)

苏珊·卡门·贾戈金斯卡 Susann Carmen Jagodzinska (id:1455359)

芭芭拉·约瑟夫 Barbara Joseph (id:1455360)

布里吉特·海伦·莫雷尔 Brigitte-Hélène Morel (id:1455361)

塞德里克·阿皮耶托 Cédric Appietto (id:1446992)

萨米尔·盖丝米 Samir Guesmi (id:1028743)

菲利普·雷博 Philippe Rebbot (id:1430152)

班哲明·比欧雷 Benjamin Biolay (id:1005370)

亚历珊德拉·耶尔马克 Aleksandra Yermak (id:1252127)

◎标 签 法国 / 传记 / 女性 / 真实事件改编 / 2021 / 剧情 / netflix / 纪录片

◎简 介

Paris, the late 1960s. Madame Claude is at the head of a flourishing business dedicated to prostitution that gives her power over both the french political and criminal worlds. But the end of her empire is closer than she thinks.

  1. ##### MediaInfo ######

  2. General

  3. Unique ID : 240717070637878974842971743675041753218 (0xB5186BE3EDC329A4B1647C0DDD40A882)

  4. Complete name : 克劳德夫人[email protected]DDQ.COM.mkv

  5. Format : Matroska

  6. Format version : Version 4

  7. File size : 2.72 GiB

  8. Duration : 1 h 52 min

  9. Overall bit rate mode : Variable

  10. Overall bit rate : 3 451 kb/s

  11. Encoded date : UTC 2021-09-19 06:52:24

  12. Writing application : mkvmerge v61.0.0 ('So') 64-bit

  13. Writing library : libebml v1.4.2 + libmatroska v1.6.4

  14. Video

  15. ID : 1

  16. Format : AVC

  17. Format/Info : Advanced Video Codec

  18. Format profile : [email protected]

  19. Format settings : CABAC / 4 Ref Frames

  20. Format settings, CABAC : Yes

  21. Format settings, Reference frames : 4 frames

  22. Codec ID : V_MPEG4/ISO/AVC

  23. Duration : 1 h 52 min

  24. Bit rate mode : Variable

  25. Bit rate : 2 169 kb/s

  26. Maximum bit rate : 20.0 Mb/s

  27. Width : 1 920 pixels

  28. Height : 1 080 pixels

  29. Display aspect ratio : 16:9

  30. Frame rate mode : Constant

  31. Frame rate : 24.000 FPS

  32. Color space : YUV

  33. Chroma subsampling : 4:2:0

  34. Bit depth : 8 bits

  35. Scan type : Progressive

  36. Bits/(Pixel*Frame) : 0.044

  37. Stream size : 1.71 GiB (63%)

  38. Writing library : x264 core 148 r2722 1b0121b

  39. Encoding settings : cabac=1 / ref=4 / deblock=1:0:0 / analyse=0x3:0x111 / me=umh / subme=10 / psy=1 / psy_rd=1.00:0.00 / mixed_ref=1 / me_range=120 / chroma_me=1 / trellis=2 / 8x8dct=1 / cqm=0 / deadzone=21,11 / fast_pskip=1 / chroma_qp_offset=-2 / threads=6 / lookahead_threads=1 / sliced_threads=0 / nr=0 / decimate=1 / interlaced=0 / NTMzNTQ= / bluray_compat=0 / stitchable=1 / constrained_intra=0 / bframes=16 / b_pyramid=2 / b_adapt=2 / b_bias=0 / direct=3 / weightb=1 / open_gop=0 / weightp=2 / keyint=240 / keyint_min=121 / scenecut=0 / intra_refresh=0 / rc_lookahead=240 / rc=crf / mbtree=1 / crf=17.0 / qcomp=0.50 / qpmin=6 / qpmax=51 / qpstep=4 / vbv_maxrate=20000 / vbv_bufsize=25000 / crf_max=0.0 / nal_hrd=vbr / filler=0 / NTMzNTQ=LmsMAP37EqsCpk / ip_ratio=1.40 / aq=1:0.80

  40. Default : Yes

  41. Forced : No

  42. Audio #1

  43. ID : 2

  44. Format : E-AC-3

  45. Format/Info : Enhanced AC-3

  46. Commercial name : Dolby Digital Plus

  47. Codec ID : A_EAC3

  48. Duration : 1 h 52 min

  49. Bit rate mode : Constant

  50. Bit rate : 640 kb/s

  51. Channel(s) : 6 channels

  52. Channel layout : L R C LFE Ls Rs

  53. Sampling rate : 48.0 kHz

  54. Frame rate : 31.250 FPS (1536 SPF)

  55. Compression mode : Lossy

  56. Stream size : 517 MiB (19%)

  57. Language : French

  58. Service kind : Complete Main

  59. Default : Yes

  60. Forced : No

  61. Audio #2

  62. ID : 3

  63. Format : E-AC-3

  64. Format/Info : Enhanced AC-3

  65. Commercial name : Dolby Digital Plus

  66. Codec ID : A_EAC3

  67. Duration : 1 h 52 min

  68. Bit rate mode : Constant

  69. Bit rate : 640 kb/s

  70. Channel(s) : 6 channels

  71. Channel layout : L R C LFE Ls Rs

  72. Sampling rate : 48.0 kHz

  73. Frame rate : 31.250 FPS (1536 SPF)

  74. Compression mode : Lossy

  75. Stream size : 517 MiB (19%)

  76. Language : English

  77. Service kind : Complete Main

  78. Default : Yes

  79. Forced : No

  80. Text #1

  81. ID : 4

  82. Format : UTF-8

  83. Codec ID : S_TEXT/UTF8

  84. Codec ID/Info : UTF-8 Plain Text

  85. Duration : 1 h 51 min

  86. Bit rate : 39 b/s

  87. Count of elements : 1130

  88. Stream size : 32.7 KiB (0%)

  89. Language : English

  90. Default : Yes

  91. Forced : No

  92. Text #2

  93. ID : 5

  94. Format : UTF-8

  95. Codec ID : S_TEXT/UTF8

  96. Codec ID/Info : UTF-8 Plain Text

  97. Duration : 1 h 51 min

  98. Bit rate : 38 b/s

  99. Count of elements : 1143

  100. Stream size : 31.2 KiB (0%)

  101. Title : 简体中文

  102. Language : Chinese

  103. Default : Yes

  104. Forced : Yes

  105. Text #3

  106. ID : 6

  107. Format : UTF-8

  108. Codec ID : S_TEXT/UTF8

  109. Codec ID/Info : UTF-8 Plain Text

  110. Duration : 1 h 51 min

  111. Bit rate : 37 b/s

  112. Count of elements : 1143

  113. Stream size : 31.0 KiB (0%)

  114. Title : 繁体中文

  115. Language : Chinese

  116. Default : Yes

  117. Forced : No


文件下载


除非特别注明,本文『克劳德夫人[中文字幕].Madame.Claude.2021.Repack.1080p.NF.WEB-DL.x264.DDP5.1 2.72GB』来源于互联网机器人自动抓取,非本站原创。 浮游电影网不对本文拥有版权,如有侵犯,请联系邮箱:fuyouu#yandex.com[#换成@]投诉。我们会在15个工作日内删除。 但烦请转载时请标明出处:“本文转载于『浮游电影网』,原文地址:https://www.fuyouu.com/14498.html

评论吧骚年!

发表你的见解   

昵称*

E-mail*(建议输入,以便收到博主回复的提示邮件)

验证码*

您可以使用eMule或eMule Mod(Windows)、aMule(Win、Linux、Mac)等软件下载eD2k链接。。
eMule收藏集(.emulecollection)文件是您选中的所有链接的列表文件。eMule可以直接下载它们。
按住SHIFT键选择可以选中多个选择框。
可用文件名和大小选择器来选择文件。
文件名选择器帮您根据文件名称或后缀来选择文件。不分大小写。
符号使用:
和:空格( )、+
不包含:-
或:|
转义:一对英文引号("");
匹配开头:^
匹配结尾:$
例如:
选中所有名称中包含有“eMule”或“0.49c”字眼,但不包含有“exe”字眼的:emule|0.49c -exe
选中所有名称的开头是“eMule”,结尾是“0.49c”的:^emule 0.49c$
选中所有名称中带有“eMule 0.49c”的(必须是“eMule 0.49c”,中间没有别的字符,不能是“eMule fake 0.49c”),需要转义:"emule 0.49c"
大小选择器帮您根据文件大小选择文件。