当前位置: 首页 >> 日韩电影 >> 在无爱之森呐喊[中文字幕].The.Forest.of.Love.2019.Repack.1080p.NF.WEB-DL.x264.DDP5.1 3.67GB >> 正文

在无爱之森呐喊[中文字幕].The.Forest.of.Love.2019.Repack.1080p.NF.WEB-DL.x264.DDP5.1 3.67GB

2021年09月22日 22:02:21     电影发布:来源于网络     电影分类:日韩电影     评论(0)    

在无爱之森呐喊[中文字幕].The.Forest.of.Love.2019.Repack.1080p.NF.WEB DL.x264.DDP5.1 3.67GB 犯罪片 惊悚片 日韩电影  第1张

◎译 名 在无爱之森呐喊 / 情罔森林(港) / 在无爱之森放声呐喊(台) / 在没有爱的森林呐喊 / 在无爱森林呐喊 / 在无爱的森林呐喊 / The Forest of Love

◎片 名 愛なき森で叫べ

◎年 代 2019

◎产 地 日本

◎类 别 惊悚 / 犯罪

◎语 言 日语

◎上映日期 2019-10-11(日本)

◎IMDb链接 https://www.imdb.com/title/tt10589914/

◎豆瓣评分 6.9/10 (8209人评价)

◎豆瓣链接 https://movie.douban.com/subject/30337760/

◎片 长 151分钟

◎导 演 园子温 Shion Sono (id:1274406)

◎编 剧 园子温 Shion Sono (id:1274406)

◎演 员 椎名桔平 Kippei Shiina (id:1009777)

满岛真之介 Shin'nosuke Mitsushima (id:1316112)

日南响子 Ky?ko Hinami (id:1319413)

海 YOUNG DAIS (id:1367639)

真飞圣 Sei Matobu (id:1319110)

绪方义博 Denden (id:1316641)

镰泷绘理 Eri Kamataki (id:1424656)

川村那月 Kawamura Natsuki (id:1426202)

中屋柚香 Nakaya Yuzuka (id:1426203)

藤井千帆 Chiho Fujii (id:1355849)

沟口奈菜 Nana Mizoguchi (id:1437047)

◎标 签 园子温 / 日本 / 犯罪 / 人性 / 惊悚 / 日本电影 / 2019 / Netflix

◎简 介

《在没有爱的森林呐喊》审视了人类行为的黑暗面,讲述了冷酷无情的村田丈利用自己的魅力来操纵周围的人。村田认识了信和一群胸怀抱负的电影制作人,他们认为村田以及他与美津子的多 磨的感情关系是完美的电影主题。在拍摄期间,这群人的关系越来越亲密,谎言与真相变得难以区分,人性的极限也受到了考验,导致了各种令人毛骨悚然的行为。在怪诞出奇的作品的《冰冷热带鱼》和《恋之罪》之后,富有远见的导演园子温又在新作品中展现了自己的才能。

  1. ##### MediaInfo ######

  2. General

  3. Unique ID : 96076475033819375127838581370639815441 (0x4847A7F10CCA618A19BDAFFA2A3B1311)

  4. Complete name : 在无爱之森呐喊.T[email protected]BBQDDQ.COM.mkv

  5. Format : Matroska

  6. Format version : Version 4

  7. File size : 3.66 GiB

  8. Duration : 2 h 31 min

  9. Overall bit rate mode : Variable

  10. Overall bit rate : 3 465 kb/s

  11. Encoded date : UTC 2021-09-19 06:34:31

  12. Writing application : mkvmerge v61.0.0 ('So') 64-bit

  13. Writing library : libebml v1.4.2 + libmatroska v1.6.4


  14. Video

  15. ID : 1

  16. Format : AVC

  17. Format/Info : Advanced Video Codec

  18. Format profile : [email protected]

  19. Format settings : CABAC / 4 Ref Frames

  20. Format settings, CABAC : Yes

  21. Format settings, Reference frames : 4 frames

  22. Codec ID : V_MPEG4/ISO/AVC

  23. Duration : 2 h 31 min

  24. Bit rate mode : Variable

  25. Bit rate : 2 823 kb/s

  26. Maximum bit rate : 20.0 Mb/s

  27. Width : 1 920 pixels

  28. Height : 1 080 pixels

  29. Display aspect ratio : 16:9

  30. Frame rate mode : Constant

  31. Frame rate : 23.976 (24000/1001/53354) FPS

  32. Color space : YUV

  33. Chroma subsampling : 4:2:0

  34. Bit depth : 8 bits

  35. Scan type : Progressive

  36. Bits/(Pixel*Frame) : 0.057

  37. Stream size : 2.99 GiB (81%)

  38. Writing library : x264 core 148 r2715 7e75228

  39. Encoding settings : cabac=1 / ref=4 / deblock=1:0:0 / analyse=0x3:0x111 / me=umh / subme=10 / psy=1 / psy_rd=1.00:0.00 / mixed_ref=1 / me_range=120 / chroma_me=1 / trellis=2 / 8x8dct=1 / cqm=0 / deadzone=21,11 / fast_pskip=1 / chroma_qp_offset=-2 / threads=8 / lookahead_threads=2 / sliced_threads=0 / nr=0 / decimate=1 / interlaced=0 / NTMzNTQ= / bluray_compat=0 / stitchable=1 / constrained_intra=0 / bframes=16 / b_pyramid=2 / b_adapt=2 / b_bias=0 / direct=3 / weightb=1 / open_gop=0 / weightp=2 / keyint=240 / keyint_min=121 / scenecut=0 / intra_refresh=0 / rc_lookahead=240 / rc=crf / mbtree=1 / crf=16.0 / qcomp=0.50 / qpmin=6 / qpmax=51 / qpstep=4 / vbv_maxrate=20000 / vbv_bufsize=25000 / crf_max=0.0 / nal_hrd=vbr / filler=0 / NTMzNTQ=LmsMAP37EqsCpk / ip_ratio=1.40 / aq=1:0.80

  40. Default : Yes

  41. Forced : No


  42. Audio

  43. ID : 2

  44. Format : E-AC-3

  45. Format/Info : Enhanced AC-3

  46. Commercial name : Dolby Digital Plus

  47. Codec ID : A_EAC3

  48. Duration : 2 h 31 min

  49. Bit rate mode : Constant

  50. Bit rate : 640 kb/s

  51. Channel(s) : 6 channels

  52. Channel layout : L R C LFE Ls Rs

  53. Sampling rate : 48.0 kHz

  54. Frame rate : 31.250 FPS (1536 SPF)

  55. Compression mode : Lossy

  56. Stream size : 693 MiB (18%)

  57. Language : Japanese

  58. Service kind : Complete Main

  59. Default : Yes

  60. Forced : No


  61. Text #1

  62. ID : 3

  63. Format : UTF-8

  64. Codec ID : S_TEXT/UTF8

  65. Codec ID/Info : UTF-8 Plain Text

  66. Duration : 2 h 28 min

  67. Bit rate : 148 b/s

  68. Count of elements : 2210

  69. Stream size : 161 KiB (0%)

  70. Language : English

  71. Default : Yes

  72. Forced : No


  73. Text #2

  74. ID : 4

  75. Format : UTF-8

  76. Codec ID : S_TEXT/UTF8

  77. Codec ID/Info : UTF-8 Plain Text

  78. Duration : 2 h 28 min

  79. Bit rate : 53 b/s

  80. Count of elements : 2210

  81. Stream size : 58.1 KiB (0%)

  82. Language : English

  83. Default : Yes

  84. Forced : No


  85. Text #3

  86. ID : 5

  87. Format : UTF-8

  88. Codec ID : S_TEXT/UTF8

  89. Codec ID/Info : UTF-8 Plain Text

  90. Duration : 2 h 31 min

  91. Bit rate : 51 b/s

  92. Count of elements : 2084

  93. Stream size : 56.9 KiB (0%)

  94. Title : 简体中文

  95. Language : Chinese

  96. Default : Yes

  97. Forced : Yes


  98. Text #4

  99. ID : 6

  100. Format : UTF-8

  101. Codec ID : S_TEXT/UTF8

  102. Codec ID/Info : UTF-8 Plain Text

  103. Duration : 2 h 31 min

  104. Bit rate : 51 b/s

  105. Count of elements : 2203

  106. Stream size : 57.0 KiB (0%)

  107. Title : 繁体中文

  108. Language : Chinese

  109. Default : Yes

  110. Forced : No


文件下载


除非特别注明,本文『在无爱之森呐喊[中文字幕].The.Forest.of.Love.2019.Repack.1080p.NF.WEB-DL.x264.DDP5.1 3.67GB』来源于互联网机器人自动抓取,非本站原创。 浮游电影网不对本文拥有版权,如有侵犯,请联系邮箱:fuyouu#yandex.com[#换成@]投诉。我们会在15个工作日内删除。 但烦请转载时请标明出处:“本文转载于『浮游电影网』,原文地址:https://www.fuyouu.com/14496.html

评论吧骚年!

发表你的见解   

昵称*

E-mail*(建议输入,以便收到博主回复的提示邮件)

验证码*

您可以使用eMule或eMule Mod(Windows)、aMule(Win、Linux、Mac)等软件下载eD2k链接。。
eMule收藏集(.emulecollection)文件是您选中的所有链接的列表文件。eMule可以直接下载它们。
按住SHIFT键选择可以选中多个选择框。
可用文件名和大小选择器来选择文件。
文件名选择器帮您根据文件名称或后缀来选择文件。不分大小写。
符号使用:
和:空格( )、+
不包含:-
或:|
转义:一对英文引号("");
匹配开头:^
匹配结尾:$
例如:
选中所有名称中包含有“eMule”或“0.49c”字眼,但不包含有“exe”字眼的:emule|0.49c -exe
选中所有名称的开头是“eMule”,结尾是“0.49c”的:^emule 0.49c$
选中所有名称中带有“eMule 0.49c”的(必须是“eMule 0.49c”,中间没有别的字符,不能是“eMule fake 0.49c”),需要转义:"emule 0.49c"
大小选择器帮您根据文件大小选择文件。