当前位置: 首页 >> 动画电影 >> 你好世界[中文字幕].Hello.World.2019.WEB-DL.4K.H265.Dolby.Digital.Plus.with.Dolby.Atmos 3.66GB >> 正文

你好世界[中文字幕].Hello.World.2019.WEB-DL.4K.H265.Dolby.Digital.Plus.with.Dolby.Atmos 3.66GB

2021年09月22日 21:58:27     电影发布:来源于网络     电影分类:动画电影     评论(0)    

你好世界[中文字幕].Hello.World.2019.WEB-DL.4K.H265.Dolby.Digital.Plus.with.Dolby.Atmos 3.66GB

◎译 名 你好世界 / ハロー?ワールド

◎片 名 HELLO WORLD

◎年 代 2019

◎产 地 日本

◎类 别 爱情 / 动画 / 奇幻

◎语 言 日语

◎上映日期 2021-06-11(中国大陆) / 2019-09-20(日本)

◎IMDb链接 https://www.imdb.com/title/tt9418812/

◎豆瓣评分 6.9/10 (47036人评价)

◎豆瓣链接 https://movie.douban.com/subject/30401194/

◎片 长 97分钟

◎导 演 伊藤智彦 Itou Tomohiko (id:1315992)

◎编 剧 野崎惑 Mado Nozaki (id:1376097)

◎演 员 北村匠海 Takumi Kitamura (id:1314521)

松坂桃李 T?ri Matsuzaka (id:1265728)

滨边美波 Minami Hamabe (id:1324483)

子安武人 Takehito Koyasu (id:1054354)

寿美菜子 Minako Kotobuki (id:1275208)

福原遥 Haruka Fukuhara (id:1350783)

钉宫理惠 Rie Kugimiya (id:1018687)

德本英一郎 Tokumoto Eiichirou (id:1425652)

堀口悠纪子 Yukiko Horiguchi (id:1455293)

◎标 签 青春 / 奇幻 / 日漫 / 日本动漫 / 日本动画电影 / 感人 / 日本 / 剧情

◎简 介

在京都居住的内向男高中生直实(北村匠海 配音)的面前,突然出现从10年后穿越而来26岁的自己(松坂桃李 配音)。未来的直实告诉他,自己不久便会与琉璃(滨边美波 配音)相爱,可是之后烟花大会时她却会因为一场事故意外离世。

为了拯救爱人,16岁的直实卷入了这场现实与虚拟的记忆世界,经历了一系列超乎想象的事情。即使世界毁灭,我也想再见你一面。

◎获奖情况 (共1项)

第7届豆瓣电影年度榜单 (2020)

评分最高的日本电影(提名)

  1. ##### MediaInfo ######

  2. General

  3. Unique ID : 293000636977534620423738627045361399954 (0xDC6DDEBB768060EA6923DED963FF3892)

  4. Complete name : Hello World 2019 WEB-DL 4K H265 Dolby Digital Plus with Dolby [email protected]

  5. Format : Matroska

  6. Format version : Version 4

  7. File size : 3.66 GiB

  8. Duration : 1 h 37 min

  9. Overall bit rate : 5 360 kb/s

  10. Encoded date : UTC 2021-09-21 02:11:02

  11. Writing application : mkvmerge v58.0.0 ('Supper's Ready') 64-bit

  12. Writing library : libebml v1.4.2 + libmatroska v1.6.4

  13. Video

  14. ID : 1

  15. Format : HEVC

  16. Format/Info : High Efficiency Video Coding

  17. Format profile : [email protected]@Main

  18. Codec ID : V_MPEGH/ISO/HEVC

  19. Duration : 1 h 37 min

  20. Bit rate : 4 199 kb/s

  21. Width : 3 840 pixels

  22. Height : 2 160 pixels

  23. Display aspect ratio : 16:9

  24. Frame rate mode : Constant

  25. Frame rate : 24.000 FPS

  26. Color space : YUV

  27. Chroma subsampling : 4:2:0

  28. Bit depth : 8 bits

  29. Bits/(Pixel*Frame) : 0.021

  30. Stream size : 2.87 GiB (78%)

  31. Writing library : HW265_Code

  32. Default : Yes

  33. Forced : No

  34. Color range : Limited

  35. Matrix coefficients : BT.709

  36. Audio #1

  37. ID : 2

  38. Format : E-AC-3 JOC

  39. Format/Info : Enhanced AC-3 with Joint Object Coding

  40. Commercial name : Dolby Digital Plus with Dolby Atmos

  41. Codec ID : A_EAC3

  42. Duration : 1 h 37 min

  43. Bit rate mode : Constant

  44. Bit rate : 448 kb/s

  45. Channel(s) : 6 channels

  46. Channel layout : L R C LFE Ls Rs

  47. Sampling rate : 48.0 kHz

  48. Frame rate : 31.250 FPS (1536 SPF)

  49. Compression mode : Lossy

  50. Stream size : 313 MiB (8%)

  51. Title : 普通话

  52. Language : Chinese

  53. Service kind : Complete Main

  54. Default : Yes

  55. Forced : No

  56. Complexity index : 16

  57. Number of dynamic objects : 15

  58. Bed channel count : 1 channel

  59. Bed channel configuration : LFE

  60. Audio #2

  61. ID : 3

  62. Format : AAC LC SBR

  63. Format/Info : Advanced Audio Codec Low Complexity with Spectral Band Replication

  64. Commercial name : HE-AAC

  65. Format settings : NBC

  66. Codec ID : A_AAC-5

  67. Duration : 1 h 37 min

  68. Bit rate : 132 kb/s

  69. Channel(s) : 6 channels

  70. Channel layout : C L R Ls Rs LFE

  71. Sampling rate : 48.0 kHz

  72. Frame rate : 23.438 FPS (2048 SPF)

  73. Compression mode : Lossy

  74. Stream size : 91.6 MiB (2%)

  75. Title : 普通话

  76. Language : Chinese

  77. Default : No

  78. Forced : No

  79. Audio #3

  80. ID : 4

  81. Format : E-AC-3 JOC

  82. Format/Info : Enhanced AC-3 with Joint Object Coding

  83. Commercial name : Dolby Digital Plus with Dolby Atmos

  84. Codec ID : A_EAC3

  85. Duration : 1 h 37 min

  86. Bit rate mode : Constant

  87. Bit rate : 448 kb/s

  88. Channel(s) : 6 channels

  89. Channel layout : L R C LFE Ls Rs

  90. Sampling rate : 48.0 kHz

  91. Frame rate : 31.250 FPS (1536 SPF)

  92. Compression mode : Lossy

  93. Stream size : 313 MiB (8%)

  94. Title : 日语

  95. Language : Japanese

  96. Service kind : Complete Main

  97. Default : No

  98. Forced : No

  99. Complexity index : 16

  100. Number of dynamic objects : 15

  101. Bed channel count : 1 channel

  102. Bed channel configuration : LFE

  103. Audio #4

  104. ID : 5

  105. Format : AAC LC SBR

  106. Format/Info : Advanced Audio Codec Low Complexity with Spectral Band Replication

  107. Commercial name : HE-AAC

  108. Format settings : NBC

  109. Codec ID : A_AAC-5

  110. Duration : 1 h 37 min

  111. Bit rate : 132 kb/s

  112. Channel(s) : 6 channels

  113. Channel layout : C L R Ls Rs LFE

  114. Sampling rate : 48.0 kHz

  115. Frame rate : 23.438 FPS (2048 SPF)

  116. Compression mode : Lossy

  117. Stream size : 91.6 MiB (2%)

  118. Title : 日语

  119. Language : Japanese

  120. Default : No

  121. Forced : No

文件下载


除非特别注明,本文『你好世界[中文字幕].Hello.World.2019.WEB-DL.4K.H265.Dolby.Digital.Plus.with.Dolby.Atmos 3.66GB』来源于互联网机器人自动抓取,非本站原创。 浮游电影网不对本文拥有版权,如有侵犯,请联系邮箱:fuyouu#yandex.com[#换成@]投诉。我们会在15个工作日内删除。 但烦请转载时请标明出处:“本文转载于『浮游电影网』,原文地址:https://www.fuyouu.com/14495.html

评论吧骚年!

发表你的见解   

昵称*

E-mail*(建议输入,以便收到博主回复的提示邮件)

验证码*

您可以使用eMule或eMule Mod(Windows)、aMule(Win、Linux、Mac)等软件下载eD2k链接。。
eMule收藏集(.emulecollection)文件是您选中的所有链接的列表文件。eMule可以直接下载它们。
按住SHIFT键选择可以选中多个选择框。
可用文件名和大小选择器来选择文件。
文件名选择器帮您根据文件名称或后缀来选择文件。不分大小写。
符号使用:
和:空格( )、+
不包含:-
或:|
转义:一对英文引号("");
匹配开头:^
匹配结尾:$
例如:
选中所有名称中包含有“eMule”或“0.49c”字眼,但不包含有“exe”字眼的:emule|0.49c -exe
选中所有名称的开头是“eMule”,结尾是“0.49c”的:^emule 0.49c$
选中所有名称中带有“eMule 0.49c”的(必须是“eMule 0.49c”,中间没有别的字符,不能是“eMule fake 0.49c”),需要转义:"emule 0.49c"
大小选择器帮您根据文件大小选择文件。