当前位置: 首页 >> 港台电影 >> 饮食男女[国语配音/中文字幕].Eat.Drink.Man.Woman.1994.1080p.BluRay.x265.10bit.DTS.2.0 7.59GB >> 正文

饮食男女[国语配音/中文字幕].Eat.Drink.Man.Woman.1994.1080p.BluRay.x265.10bit.DTS.2.0 7.59GB

2021年09月22日 21:53:14     电影发布:来源于网络     电影分类:港台电影     评论(0)    

饮食男女[国语配音/中文字幕].Eat.Drink.Man.Woman.1994.1080p.BluRay.x265.10bit.DTS.2.0 7.59GB 家庭片 剧情片 港台电影  第1张

◎译 名 饮食男女 / Eat Drink Man Woman

◎片 名 飲食男女

◎年 代 1994

◎产 地 中国台湾 / 美国

◎类 别 剧情 / 家庭

◎语 言 汉语普通话 / 闽南语 / 湖南话

◎上映日期 1994-08-03(美国)

◎IMDb链接 https://www.imdb.com/title/tt0111797/

◎豆瓣评分 9.1/10 (505786人评价)

◎豆瓣链接 https://movie.douban.com/subject/1291818/

◎片 长 124分钟

◎导 演 李安 Ang Lee (id:1054421)

◎编 剧 李安 Ang Lee (id:1054421)

王蕙玲 Hui-Ling Wang (id:1300390)

詹姆斯·夏慕斯 James Schamus (id:1050276)

◎演 员 郎雄 Sihung Lung (id:1274507)

杨贵媚 Kuei-Mei Yang (id:1165442)

吴倩莲 Chien-lien Wu (id:1166703)

王渝文 Yu-Wen Wang (id:1023601)

张艾嘉 Sylvia Chang (id:1012646)

归亚蕾 Ya-lei Kuei (id:1058399)

赵文瑄 Winston Chao (id:1018759)

陈昭荣 Aaron Chen (id:1313566)

陈捷文 Chit-Man Chan (id:1360631)

卢金城 Willing Lu (id:1330807)

唐语谦 Yu-Chien Tang (id:1389339)

洪其德 Chi-Der Hong (id:1389340)

王瑞 Shui Wang (id:1347588)

杜满生 Man Sheng Tu (id:1360158)

王玨 George Wang (id:1168014)

陈妤 Yu Chen (id:1385993)

左正芬 Cheng-Fen Tso (id:1389343)

许敬民 Gin-Ming Hsu (id:1389341)

聂卓晶 Cho-Gin Nei (id:1389342)

丁仲 Chung Ting (id:1389344)

詹姆斯·夏慕斯 James Schamus (id:1050276)

徐立功 Li-Kong Hsu (id:1287036)

特德·霍普 Ted Hope (id:1286895)

江奉琪 Feng-Chyt Jiang (id:1287722)

林良忠 Jong Lin (id:1290065)

李安 Ang Lee (id:1054421)

蒂姆·斯奎尔斯 Tim Squyres (id:1298208)

李富雄 Fu-Hsiung Lee (id:1289666)

李伟明 Wai-Ming Lee (id:1289711)

◎标 签 李安 / 家庭 / 台湾 / 伦理 / 饮食男女 / 台湾电影 / 亲情 / 剧情

◎简 介

台湾中国菜硕果仅存的大师老朱(郎雄)退休后,渐尝老年生活的诸多尴尬:每周日费心做出的一桌丰盛菜肴,并无将三个女儿(杨贵媚、吴倩莲、王渝文)齐齐拉到饭桌的吸引力,已经长大成人的她们,心里藏了许多比陪父亲吃饭更重要的事;多年老友的突然离世,令他在友情这块也有了缺口;而对厨师来讲最重要的味觉的丧失,则将其彻底推到人生的低谷。

三个女儿虽各忙各事,却也操心着老朱的晚年生活,计划着为其找个老伴,但她们没料到老朱早已悄无声息地谈起了“黄昏恋”。吃惊过后,老朱最看重的继承了他做菜天赋的二女儿家倩因为自身的生活经历,对父亲、她与父亲的关系有了新的认识,而对老朱来讲更大的惊喜,还在后面。

◎获奖情况 (共6项)

第67届奥斯卡金像奖 (1995)

最佳外语片(提名)

└──李安 (id:1054421)

第52届金球奖 (1995)

电影类 最佳外语片(提名)

第31届台北金马影展 (1994)

金马奖 最佳剧情片(提名)

金马奖 最佳女配角(提名)

└──归亚蕾 (id:1058399)

金马奖 最佳原著剧本(提名)

第48届英国电影学院奖 (1995)

电影奖 最佳非英语片(提名)

  1. ##### MediaInfo ######

  2. General

  3. Unique ID : 28188700362316780930778365134587025692 (0x1534F23AF506F2B099BB97917D63D91C)

  4. Complete name : [email protected]BQDDQ.COM.mkv

  5. Format : Matroska

  6. Format version : Version 4

  7. File size : 7.59 GiB

  8. Duration : 2 h 4 min

  9. Overall bit rate : 8 740 kb/s

  10. Movie name : Eat Drink Man Woman 1994

  11. Encoded date : UTC 2021-09-21 03:58:29

  12. Writing application : mkvmerge v61.0.0 ('So') 64-bit

  13. Writing library : libebml v1.4.2 + libmatroska v1.6.4

  14. Cover : Yes

  15. Attachments : cover.jpg


  16. Video

  17. ID : 1

  18. Format : HEVC

  19. Format/Info : High Efficiency Video Coding

  20. Format profile : Main [email protected]@Main

  21. Codec ID : V_MPEGH/ISO/HEVC

  22. Duration : 2 h 4 min

  23. Bit rate : 7 202 kb/s

  24. Width : 1 920 pixels

  25. Height : 1 036 pixels

  26. Display aspect ratio : 1.85:1

  27. Frame rate mode : Constant

  28. Frame rate : 23.976 (24000/1001/53354) FPS

  29. Color space : YUV

  30. Chroma subsampling : 4:2:0

  31. Bit depth : 10 bits

  32. Bits/(Pixel*Frame) : 0.151

  33. Stream size : 6.25 GiB (82%)

  34. Writing library : x265 3.5+2-g2b25c9ba0+45:[Windows][GCC 10.2.0][64 bit] Yuuki 10bit+8bit+12bit

  35. Encoding settings : rc=crf / crf=19.0000 / qcomp=0.60 / qpstep=4 / stats-write=0 / stats-read=0 / no-lossless / no-cu-lossless / aq-mode=1 / aq-strength=1.00 / cbqpoffs=0 / crqpoffs=0 / ipratio=1.40 / pbratio=1.30 / psy-rd=2.00 / psy-rdoq=0.00 / deblock=0:0 / ref=6 / limit-refs=1 / no-limit-modes / bframes=8 / b-adapt=2 / bframe-bias=0 / b-pyramid / b-intra / weightp / weightb / min-keyint=24 / max-keyint=240 / rc-lookahead=24 / gop-lookahead=0 / NTMzNTQ=uuDQuD2mJt9fsCf / scenecut=40 / hist-scenecut=0 / radl=0 / max-cu-size=64 / min-cu-size=8 / me=3 / subme=7 / merange=48 / rdoq-level=0 / rd=4 / rdpenalty=0 / dynamic-rd=0.00 / no-rd-refine / ----- / cutree / sao / no-rect / no-amp / no-open-gop / wpp / no-pmode / no-pme / no-psnr / no-ssim / nr-intra=0 / nr-inter=0 / no-constrained-intra / no-strong-intra-smoothing / max-tu-size=32 / tu-inter-depth=1 / tu-intra-depth=1 / limit-tu=0 / qg-size=32 / qpmax=69 / qpmin=0 / ----- / cpuid=533541111039 / frame-threads=4 / numa-pools=+ / log-level=2 / input-csp=1 / input-res=1920x1036 / interlace=0 / level-idc=0 / high-tier=1 / uhd-bd=0 / no-allow-non-conformance / repeat-headers / aud / no-hrd / info / hash=0 / no-temporal-layers / lookahead-slices=0 / no-splice / no-intra-refresh / no-ssim-rd / signhide / no-tskip / max-merge=3 / temporal-mvp / no-frame-dup / no-hme / no-analyze-src-pics / no-sao-non-deblock / selective-sao=4 / early-skip / rskip / no-fast-intra / no-tskip-fast / no-splitrd-skip / zone-count=0 / no-strict-cbr / no-rc-grain / no-const-vbv / sar=0 / overscan=0 / videoformat=5 / range=0 / colorprim=2 / transfer=2 / colormatrix=2 / chromaloc=0 / display-window=0 / cll=0,0 / min-luma=0 / max-luma=1023 / log2-max-poc-lsb=8 / vui-timing-info / vui-hrd-info / slices=1 / no-opt-qp-pps / no-opt-ref-list-length-pps / no-multi-pass-opt-rps / scenecut-bias=0.05 / hist-threshold=0.03 / no-opt-cu-delta-qp / no-aq-motion / no-hdr10 / no-hdr10-opt / no-dhdr10-opt / no-idr-recovery-sei / analysis-reuse-level=0 / analysis-save-reuse-level=0 / analysis-load-reuse-level=0 / scale-factor=0 / refine-intra=0 / refine-inter=0 / refine-mv=1 / refine-ctu-distortion=0 / no-limit-sao / ctu-info=0 / no-lowpass-dct / refine-analysis-type=0 / copy-pic=1 / max-ausize-factor=1.0 / no-dynamic-refine / no-single-sei / no-hevc-aq / no-svt / no-field / qp-adaptation-range=1.00 / scenecut-aware-qp=0conformance-window-offsets / right=0 / bottom=0 / NTMzNTQ= / decoder-max-rate=0 / no-vbv-live-multi-pass

  36. Default : Yes

  37. Forced : No


  38. Audio

  39. ID : 2

  40. ID in the original source medium : 4353 (0x1101)

  41. Format : DTS

  42. Format/Info : Digital Theater Systems

  43. Codec ID : A_DTS

  44. Duration : 2 h 4 min

  45. Bit rate mode : Constant

  46. Bit rate : 1 509 kb/s

  47. Channel(s) : 2 channels

  48. Channel layout : L R

  49. Sampling rate : 48.0 kHz

  50. Frame rate : 93.750 FPS (512 SPF)

  51. Bit depth : 16 bits

  52. Compression mode : Lossy

  53. Stream size : 1.31 GiB (17%)

  54. Title : Mandarin

  55. Language : Chinese

  56. Default : Yes

  57. Forced : No

  58. Original source medium : Blu-ray


  59. Text #1

  60. ID : 3

  61. Format : PGS

  62. Muxing mode : zlib

  63. Codec ID : S_HDMV/PGS

  64. Codec ID/Info : Picture based subtitle format used on BDs/HD-DVDs

  65. Duration : 1 h 55 min

  66. Bit rate : 30.8 kb/s

  67. Count of elements : 3997

  68. Stream size : 25.4 MiB (0%)

  69. Title : chs

  70. Language : Chinese

  71. Default : No

  72. Forced : No


  73. Text #2

  74. ID : 4

  75. Format : PGS

  76. Muxing mode : zlib

  77. Codec ID : S_HDMV/PGS

  78. Codec ID/Info : Picture based subtitle format used on BDs/HD-DVDs

  79. Duration : 1 h 55 min

  80. Bit rate : 31.3 kb/s

  81. Count of elements : 3997

  82. Stream size : 25.8 MiB (0%)

  83. Title : cht

  84. Language : Chinese

  85. Default : No

  86. Forced : No


  87. Menu

  88. 00:00:00.000 : Chapter 01

  89. 00:05:11.601 : Chapter 02

  90. 00:10:43.933 : Chapter 03

  91. 00:18:27.021 : Chapter 04

  92. 00:24:31.970 : Chapter 05

  93. 00:30:56.938 : Chapter 06

  94. 00:39:16.186 : Chapter 07

  95. 00:46:32.039 : Chapter 08

  96. 00:58:01.686 : Chapter 09

  97. 01:04:21.565 : Chapter 10

  98. 01:13:17.518 : Chapter 11

  99. 01:27:37.252 : Chapter 12

  100. 01:34:16.567 : Chapter 13

  101. 01:44:59.835 : Chapter 14

  102. 01:53:55.578 : Chapter 15

  103. 02:00:11.828 : Chapter 16


文件下载


除非特别注明,本文『饮食男女[国语配音/中文字幕].Eat.Drink.Man.Woman.1994.1080p.BluRay.x265.10bit.DTS.2.0 7.59GB』来源于互联网机器人自动抓取,非本站原创。 浮游电影网不对本文拥有版权,如有侵犯,请联系邮箱:fuyouu#yandex.com[#换成@]投诉。我们会在15个工作日内删除。 但烦请转载时请标明出处:“本文转载于『浮游电影网』,原文地址:https://www.fuyouu.com/14493.html

评论吧骚年!

发表你的见解   

昵称*

E-mail*(建议输入,以便收到博主回复的提示邮件)

验证码*

您可以使用eMule或eMule Mod(Windows)、aMule(Win、Linux、Mac)等软件下载eD2k链接。。
eMule收藏集(.emulecollection)文件是您选中的所有链接的列表文件。eMule可以直接下载它们。
按住SHIFT键选择可以选中多个选择框。
可用文件名和大小选择器来选择文件。
文件名选择器帮您根据文件名称或后缀来选择文件。不分大小写。
符号使用:
和:空格( )、+
不包含:-
或:|
转义:一对英文引号("");
匹配开头:^
匹配结尾:$
例如:
选中所有名称中包含有“eMule”或“0.49c”字眼,但不包含有“exe”字眼的:emule|0.49c -exe
选中所有名称的开头是“eMule”,结尾是“0.49c”的:^emule 0.49c$
选中所有名称中带有“eMule 0.49c”的(必须是“eMule 0.49c”,中间没有别的字符,不能是“eMule fake 0.49c”),需要转义:"emule 0.49c"
大小选择器帮您根据文件大小选择文件。