当前位置: 首页 >> 港台电影 >> 推手[国语配音/中文字幕].Pushing.Hands.1991.1080p.BluRay.x265.10bit.DTS.2.0 7.84GB >> 正文

推手[国语配音/中文字幕].Pushing.Hands.1991.1080p.BluRay.x265.10bit.DTS.2.0 7.84GB

2021年09月21日 22:14:50     电影发布:来源于网络     电影分类:港台电影     评论(0)    

推手[国语配音/中文字幕].Pushing.Hands.1991.1080p.BluRay.x265.10bit.DTS.2.0 7.84GB 家庭片 剧情片 港台电影  第1张

◎译 名 推手 / Pushing Hands

◎年 代 1991

◎产 地 中国台湾 / 美国

◎类 别 剧情 / 家庭

◎语 言 汉语普通话 / 英语 / 粤语

◎上映日期 1991-12-07(金马影展)

◎IMDb链接 https://www.imdb.com/title/tt0105652/

◎豆瓣评分 8.4/10 (124098人评价)

◎豆瓣链接 https://movie.douban.com/subject/1306939/

◎片 长 105 分钟

◎导 演 李安 Ang Lee (id:1054421)

◎编 剧 李安 Ang Lee (id:1054421)

詹姆斯·夏慕斯 James Schamus (id:1050276)

◎演 员 郎雄 Sihung Lung (id:1274507)

王莱 Lai Wang (id:1108707)

王伯昭 Bozhao Wang (id:1274590)

戴布·斯内德 Deb Snyder (id:1328087)

李涵 Haan Lee (id:1316451)

陈捷文 Chit-Man Chan (id:1360631)

李巨源 Gui Yuen Lee (id:1274970)

刘怡明 Emily Yi-Ming Liu (id:1316429)

王洪彰 Hung Chang Wang (id:1332852)

黎拨佳 B.C. Lee (id:1433809)

李安 Ang Lee (id:1054421)

江奉琪 Feng-Chyt Jiang (id:1287722)

詹姆斯·夏慕斯 James Schamus (id:1050276)

徐立功 Li-Kong Hsu (id:1287036)

刘怡明 Emily Yi-Ming Liu (id:1316429)

特德·霍普 Ted Hope (id:1286895)

瞿小松 Xiao-Song Qu (id:1351177)

林良忠 Jong Lin (id:1290065)

李安 Ang Lee (id:1054421)

蒂姆·斯奎尔斯 Tim Squyres (id:1298208)

◎标 签 李安 / 家庭 / 台湾 / 剧情 / 郎雄 / 台湾电影 / 亲情 / 推手

◎简 介

老朱(郎雄)被儿子晓生(王伯昭)从北京接到美国后,不但没享清福,反因与作家儿媳马莎(Deb Snyder)语言不通、在生活习性上有诸多差异,添出许多新愁(老朱对马莎的世界不好奇,马莎虽对老朱的世界好奇,却并不想作深入的理解,而是在好奇过后深深厌恶),倔强的老朱一片灰心(竟然在儿子家里尝到寄人篱下的滋味!),愤然离家出走。

一次偶然事件令美国媒体对老朱的太极绝技称奇,晓生和马莎也在看过电视新闻后找到了老朱,但此时的老朱已明白,处境凄凉总好过晚节不保。

◎获奖情况 (共9项)

第28届台北金马影展 (1991)

金马奖 最佳剧情片(提名)

金马奖 最佳导演(提名)

└──李安 (id:1054421)

金马奖 最佳男主角

└──郎雄 (id:1274507)

金马奖 最佳女配角

└──王莱 (id:1108707)

金马奖 最佳原著剧本(提名)

└──李安 (id:1054421)

金马奖 最佳摄影(提名)

└──林良忠 (id:1290065)

金马奖 最佳原创配乐(提名)

└──瞿小松 (id:1351177)

金马奖 最佳剪辑(提名)

└──李安 (id:1054421)

特别评审团奖

└──李安 (id:1054421)

  1. ##### MediaInfo ######

  2. General

  3. Unique ID : 309212432831652296671030794760220420841 (0xE8A025FAB4EA128F79D7462823FDAAE9)

  4. Complete name : [email protected]COM.mkv

  5. Format : Matroska

  6. Format version : Version 4

  7. File size : 7.84 GiB

  8. Duration : 1 h 45 min

  9. Overall bit rate : 10.7 Mb/s

  10. Movie name : Pushing Hands 1991

  11. Encoded date : UTC 2021-09-20 11:05:53

  12. Writing application : mkvmerge v61.0.0 ('So') 64-bit

  13. Writing library : libebml v1.4.2 + libmatroska v1.6.4

  14. Cover : Yes

  15. Attachments : cover.jpg


  16. Video

  17. ID : 1

  18. Format : HEVC

  19. Format/Info : High Efficiency Video Coding

  20. Format profile : Main [email protected]@Main

  21. Codec ID : V_MPEGH/ISO/HEVC

  22. Duration : 1 h 45 min

  23. Bit rate : 9 123 kb/s

  24. Width : 1 920 pixels

  25. Height : 1 036 pixels

  26. Display aspect ratio : 1.85:1

  27. Frame rate mode : Constant

  28. Frame rate : 23.976 (24000/1001/53354) FPS

  29. Color space : YUV

  30. Chroma subsampling : 4:2:0

  31. Bit depth : 10 bits

  32. Bits/(Pixel*Frame) : 0.191

  33. Stream size : 6.71 GiB (86%)

  34. Writing library : x265 3.5+2-g2b25c9ba0+45:[Windows][GCC 10.2.0][64 bit] Yuuki 10bit+8bit+12bit

  35. Encoding settings : rc=crf / crf=19.0000 / qcomp=0.60 / qpstep=4 / stats-write=0 / stats-read=0 / no-lossless / no-cu-lossless / aq-mode=1 / aq-strength=1.00 / cbqpoffs=0 / crqpoffs=0 / ipratio=1.40 / pbratio=1.30 / psy-rd=2.00 / psy-rdoq=0.00 / deblock=0:0 / ref=6 / limit-refs=1 / no-limit-modes / bframes=8 / b-adapt=2 / bframe-bias=0 / b-pyramid / b-intra / weightp / weightb / min-keyint=24 / max-keyint=240 / rc-lookahead=24 / gop-lookahead=0 / NTMzNTQ=uuDQuD2mJt9fsCf / scenecut=40 / hist-scenecut=0 / radl=0 / max-cu-size=64 / min-cu-size=8 / me=3 / subme=7 / merange=48 / rdoq-level=0 / rd=4 / rdpenalty=0 / dynamic-rd=0.00 / no-rd-refine / ----- / cutree / sao / no-rect / no-amp / no-open-gop / wpp / no-pmode / no-pme / no-psnr / no-ssim / nr-intra=0 / nr-inter=0 / no-constrained-intra / no-strong-intra-smoothing / max-tu-size=32 / tu-inter-depth=1 / tu-intra-depth=1 / limit-tu=0 / qg-size=32 / qpmax=69 / qpmin=0 / ----- / cpuid=533541111039 / frame-threads=4 / numa-pools=+ / log-level=2 / input-csp=1 / input-res=1920x1036 / interlace=0 / level-idc=0 / high-tier=1 / uhd-bd=0 / no-allow-non-conformance / repeat-headers / aud / no-hrd / info / hash=0 / no-temporal-layers / lookahead-slices=0 / no-splice / no-intra-refresh / no-ssim-rd / signhide / no-tskip / max-merge=3 / temporal-mvp / no-frame-dup / no-hme / no-analyze-src-pics / no-sao-non-deblock / selective-sao=4 / early-skip / rskip / no-fast-intra / no-tskip-fast / no-splitrd-skip / zone-count=0 / no-strict-cbr / no-rc-grain / no-const-vbv / sar=0 / overscan=0 / videoformat=5 / range=0 / colorprim=2 / transfer=2 / colormatrix=2 / chromaloc=0 / display-window=0 / cll=0,0 / min-luma=0 / max-luma=1023 / log2-max-poc-lsb=8 / vui-timing-info / vui-hrd-info / slices=1 / no-opt-qp-pps / no-opt-ref-list-length-pps / no-multi-pass-opt-rps / scenecut-bias=0.05 / hist-threshold=0.03 / no-opt-cu-delta-qp / no-aq-motion / no-hdr10 / no-hdr10-opt / no-dhdr10-opt / no-idr-recovery-sei / analysis-reuse-level=0 / analysis-save-reuse-level=0 / analysis-load-reuse-level=0 / scale-factor=0 / refine-intra=0 / refine-inter=0 / refine-mv=1 / refine-ctu-distortion=0 / no-limit-sao / ctu-info=0 / no-lowpass-dct / refine-analysis-type=0 / copy-pic=1 / max-ausize-factor=1.0 / no-dynamic-refine / no-single-sei / no-hevc-aq / no-svt / no-field / qp-adaptation-range=1.00 / scenecut-aware-qp=0conformance-window-offsets / right=0 / bottom=0 / NTMzNTQ= / decoder-max-rate=0 / no-vbv-live-multi-pass

  36. Default : Yes

  37. Forced : No


  38. Audio

  39. ID : 2

  40. ID in the original source medium : 4352 (0x1100)

  41. Format : DTS

  42. Format/Info : Digital Theater Systems

  43. Codec ID : A_DTS

  44. Duration : 1 h 45 min

  45. Bit rate mode : Constant

  46. Bit rate : 1 509 kb/s

  47. Channel(s) : 2 channels

  48. Channel layout : L R

  49. Sampling rate : 48.0 kHz

  50. Frame rate : 93.750 FPS (512 SPF)

  51. Bit depth : 16 bits

  52. Compression mode : Lossy

  53. Stream size : 1.11 GiB (14%)

  54. Title : Mandarin

  55. Language : Chinese

  56. Default : Yes

  57. Forced : No

  58. Original source medium : Blu-ray


  59. Text #1

  60. ID : 3

  61. Format : PGS

  62. Muxing mode : zlib

  63. Codec ID : S_HDMV/PGS

  64. Codec ID/Info : Picture based subtitle format used on BDs/HD-DVDs

  65. Duration : 1 h 36 min

  66. Bit rate : 28.4 kb/s

  67. Count of elements : 2991

  68. Stream size : 19.6 MiB (0%)

  69. Title : chs

  70. Language : Chinese

  71. Default : No

  72. Forced : No


  73. Text #2

  74. ID : 4

  75. Format : PGS

  76. Muxing mode : zlib

  77. Codec ID : S_HDMV/PGS

  78. Codec ID/Info : Picture based subtitle format used on BDs/HD-DVDs

  79. Duration : 1 h 36 min

  80. Bit rate : 28.7 kb/s

  81. Count of elements : 2991

  82. Stream size : 19.8 MiB (0%)

  83. Title : cht

  84. Language : Chinese

  85. Default : No

  86. Forced : No


  87. Menu

  88. 00:00:00.000 : Chapter 01

  89. 00:10:00.140 : Chapter 02

  90. 00:14:04.009 : Chapter 03

  91. 00:20:12.669 : Chapter 04

  92. 00:25:39.078 : Chapter 05

  93. 00:35:27.333 : Chapter 06

  94. 00:42:39.181 : Chapter 07

  95. 00:51:18.365 : Chapter 08

  96. 00:57:30.028 : Chapter 09

  97. 01:02:09.224 : Chapter 10

  98. 01:09:05.724 : Chapter 11

  99. 01:18:29.412 : Chapter 12

  100. 01:26:03.198 : Chapter 13

  101. 01:33:21.429 : Chapter 14

  102. 01:37:13.368 : Chapter 15

  103. 01:43:42.841 : Chapter 16



文件下载


除非特别注明,本文『推手[国语配音/中文字幕].Pushing.Hands.1991.1080p.BluRay.x265.10bit.DTS.2.0 7.84GB』来源于互联网机器人自动抓取,非本站原创。 浮游电影网不对本文拥有版权,如有侵犯,请联系邮箱:fuyouu#yandex.com[#换成@]投诉。我们会在15个工作日内删除。 但烦请转载时请标明出处:“本文转载于『浮游电影网』,原文地址:https://www.fuyouu.com/14491.html

评论吧骚年!

发表你的见解   

昵称*

E-mail*(建议输入,以便收到博主回复的提示邮件)

验证码*

您可以使用eMule或eMule Mod(Windows)、aMule(Win、Linux、Mac)等软件下载eD2k链接。。
eMule收藏集(.emulecollection)文件是您选中的所有链接的列表文件。eMule可以直接下载它们。
按住SHIFT键选择可以选中多个选择框。
可用文件名和大小选择器来选择文件。
文件名选择器帮您根据文件名称或后缀来选择文件。不分大小写。
符号使用:
和:空格( )、+
不包含:-
或:|
转义:一对英文引号("");
匹配开头:^
匹配结尾:$
例如:
选中所有名称中包含有“eMule”或“0.49c”字眼,但不包含有“exe”字眼的:emule|0.49c -exe
选中所有名称的开头是“eMule”,结尾是“0.49c”的:^emule 0.49c$
选中所有名称中带有“eMule 0.49c”的(必须是“eMule 0.49c”,中间没有别的字符,不能是“eMule fake 0.49c”),需要转义:"emule 0.49c"
大小选择器帮您根据文件大小选择文件。