当前位置: 首页 >> 港台电影 >> 天生爱情狂[国粤语配音/中文字幕].Natural.Born.Lovers.2012.1080p.BluRay.x265.10bit.DTS.2Audio 6.81G >> 正文

天生爱情狂[国粤语配音/中文字幕].Natural.Born.Lovers.2012.1080p.BluRay.x265.10bit.DTS.2Audio 6.81G

2021年09月21日 22:03:00     电影发布:来源于网络     电影分类:港台电影     评论(0)    

天生爱情狂[国粤语配音/中文字幕].Natural.Born.Lovers.2012.1080p.BluRay.x265.10bit.DTS.2Audio 6.81G 爱情片 喜剧片 港台电影  第1张

◎译 名 天生爱情狂 / Natural Born Lovers / Natural Lovers

◎片 名 天生愛情狂

◎年 代 2012

◎产 地 中国香港

◎类 别 喜剧 / 爱情

◎语 言 粤语

◎上映日期 2012-11-09(中国大陆) / 2012-10-25(中国香港)

◎IMDb链接 https://www.imdb.com/title/tt2372584/

◎豆瓣评分 5.8/10 (22242人评价)

◎豆瓣链接 https://movie.douban.com/subject/10456963/

◎片 长 106分钟

◎导 演 叶念琛 Patrick Kong (id:1274344)

◎编 剧 叶念琛 Patrick Kong (id:1274344)

◎演 员 张智霖 Julian Cheung (id:1050979)

刘心悠 Annie Liu (id:1001301)

雨侨 YuKiu Ava (id:1315568)

黄智雯 Mandy Wong (id:1315219)

梁竞徽 Oscar Leung (id:1275266)

叶熙祺 Xiqi Ye (id:1317861)

陈柏宇 Jason Chan (id:1316211)

苟芸慧 Christine Kuo (id:1315587)

余迪伟 Alton Yu (id:1357416)

朱薰 Josephine Ng (id:1356844)

王君馨 Grace Wong (id:1317316)

胡耀辉 Mark Wu (id:1323051)

贝依霖 Chantale Bui (id:1368303)

刘碧丽 Mandy Lieu (id:1314223)

田启文 Kai Man Tin (id:1315882)

戴耀明 Yiu-Ming Dia (id:1319089)

姜皓文 Philip Keung Ho-Man (id:1317884)

田启文 Kai Man Tin (id:1315882)

吴若希 Jinny Ng (id:1340818)

◎标 签 爱情 / 香港 / 喜剧 / 2012 / 心理 / 都市 / 在电影里发现自己 / 忘记那个曾经你爱过的人吧

◎简 介

富家子张泰林(张智霖 饰)在偶然之下结识了俏护士邝美宝(刘心悠 饰),两人堕入爱河,但其后泰林却逐渐发现美宝的另一面:多疑、善妒、控制欲强兼有轻微的暴力倾向。泰林难以忍受提出分手,但依然受到美宝的跟踪。美宝在医院偶遇泰林前女友慧欣(苟芸慧 饰),得知泰林不为人知的秘密,而此时泰林与母亲介绍相亲的女孩晴晴(叶熙祺 饰)的关系越加亲密。一次巧遇,美宝与泰林公开对质他的秘密,原来这场疯狂爱情才刚刚开始……

  1. ##### MediaInfo ######

  2. General

  3. Unique ID : 40066394957408149316912555106671512563 (0x1E2481C9854C6981521431F86DAFCBF3)

  4. Complete name : Na[email protected]BBQDDQ.COM.mkv

  5. Format : Matroska

  6. Format version : Version 4

  7. File size : 6.81 GiB

  8. Duration : 1 h 45 min

  9. Overall bit rate : 9 251 kb/s

  10. Movie name : Natural Born Lovers 2012

  11. Encoded date : UTC 2021-09-20 06:18:59

  12. Writing application : mkvmerge v61.0.0 ('So') 64-bit

  13. Writing library : libebml v1.4.2 + libmatroska v1.6.4

  14. Cover : Yes

  15. Attachments : cover.jpg


  16. Video

  17. ID : 1

  18. Format : HEVC

  19. Format/Info : High Efficiency Video Coding

  20. Format profile : Main [email protected]@Main

  21. Codec ID : V_MPEGH/ISO/HEVC

  22. Duration : 1 h 45 min

  23. Bit rate : 7 006 kb/s

  24. Width : 1 920 pixels

  25. Height : 1 080 pixels

  26. Display aspect ratio : 16:9

  27. Frame rate mode : Constant

  28. Frame rate : 24.000 FPS

  29. Color space : YUV

  30. Chroma subsampling : 4:2:0

  31. Bit depth : 10 bits

  32. Bits/(Pixel*Frame) : 0.141

  33. Stream size : 5.16 GiB (76%)

  34. Writing library : x265 3.5+2-g2b25c9ba0+45:[Windows][GCC 10.2.0][64 bit] Yuuki 10bit+8bit+12bit

  35. Encoding settings : rc=crf / crf=18.5000 / qcomp=0.60 / qpstep=4 / stats-write=0 / stats-read=0 / no-lossless / no-cu-lossless / aq-mode=3 / aq-strength=0.90 / cbqpoffs=0 / crqpoffs=0 / ipratio=1.40 / pbratio=1.30 / psy-rd=2.00 / psy-rdoq=0.00 / deblock=0:0 / ref=6 / limit-refs=1 / no-limit-modes / bframes=8 / b-adapt=2 / bframe-bias=0 / b-pyramid / b-intra / weightp / weightb / min-keyint=24 / max-keyint=240 / rc-lookahead=24 / gop-lookahead=0 / NTMzNTQ=uuDQuD2mJt9fsCf / scenecut=40 / hist-scenecut=0 / radl=0 / max-cu-size=64 / min-cu-size=8 / me=3 / subme=7 / merange=48 / rdoq-level=0 / rd=4 / rdpenalty=0 / dynamic-rd=0.00 / no-rd-refine / ----- / cutree / sao / no-rect / no-amp / no-open-gop / wpp / no-pmode / no-pme / no-psnr / no-ssim / nr-intra=0 / nr-inter=0 / no-constrained-intra / no-strong-intra-smoothing / max-tu-size=32 / tu-inter-depth=1 / tu-intra-depth=1 / limit-tu=0 / qg-size=32 / qpmax=69 / qpmin=0 / ----- / cpuid=533541111039 / frame-threads=4 / numa-pools=+ / log-level=2 / input-csp=1 / input-res=1920x1080 / interlace=0 / level-idc=0 / high-tier=1 / uhd-bd=0 / no-allow-non-conformance / repeat-headers / aud / no-hrd / info / hash=0 / no-temporal-layers / lookahead-slices=0 / no-splice / no-intra-refresh / no-ssim-rd / signhide / no-tskip / max-merge=3 / temporal-mvp / no-frame-dup / no-hme / no-analyze-src-pics / no-sao-non-deblock / selective-sao=4 / early-skip / rskip / no-fast-intra / no-tskip-fast / no-splitrd-skip / zone-count=0 / no-strict-cbr / no-rc-grain / no-const-vbv / sar=0 / overscan=0 / videoformat=5 / range=0 / colorprim=2 / transfer=2 / colormatrix=2 / chromaloc=0 / display-window=0 / cll=0,0 / min-luma=0 / max-luma=1023 / log2-max-poc-lsb=8 / vui-timing-info / vui-hrd-info / slices=1 / no-opt-qp-pps / no-opt-ref-list-length-pps / no-multi-pass-opt-rps / scenecut-bias=0.05 / hist-threshold=0.03 / no-opt-cu-delta-qp / no-aq-motion / no-hdr10 / no-hdr10-opt / no-dhdr10-opt / no-idr-recovery-sei / analysis-reuse-level=0 / analysis-save-reuse-level=0 / analysis-load-reuse-level=0 / scale-factor=0 / refine-intra=0 / refine-inter=0 / refine-mv=1 / refine-ctu-distortion=0 / no-limit-sao / ctu-info=0 / no-lowpass-dct / refine-analysis-type=0 / copy-pic=1 / max-ausize-factor=1.0 / no-dynamic-refine / no-single-sei / no-hevc-aq / no-svt / no-field / qp-adaptation-range=1.00 / scenecut-aware-qp=0conformance-window-offsets / right=0 / bottom=0 / NTMzNTQ= / decoder-max-rate=0 / no-vbv-live-multi-pass

  36. Default : Yes

  37. Forced : No


  38. Audio #1

  39. ID : 2

  40. Format : DTS

  41. Format/Info : Digital Theater Systems

  42. Codec ID : A_DTS

  43. Duration : 1 h 45 min

  44. Bit rate mode : Constant

  45. Bit rate : 1 509 kb/s

  46. Channel(s) : 6 channels

  47. Channel layout : C L R Ls Rs LFE

  48. Sampling rate : 48.0 kHz

  49. Frame rate : 93.750 FPS (512 SPF)

  50. Bit depth : 16 bits

  51. Compression mode : Lossy

  52. Stream size : 1.11 GiB (16%)

  53. Title : Cantonese

  54. Language : Chinese

  55. Default : Yes

  56. Forced : No


  57. Audio #2

  58. ID : 3

  59. ID in the original source medium : 4353 (0x1101)

  60. Format : AC-3

  61. Format/Info : Audio Coding 3

  62. Commercial name : Dolby Digital

  63. Codec ID : A_AC3

  64. Duration : 1 h 45 min

  65. Bit rate mode : Constant

  66. Bit rate : 640 kb/s

  67. Channel(s) : 6 channels

  68. Channel layout : L R C LFE Ls Rs

  69. Sampling rate : 48.0 kHz

  70. Frame rate : 31.250 FPS (1536 SPF)

  71. Compression mode : Lossy

  72. Stream size : 483 MiB (7%)

  73. Title : Mandarin

  74. Language : Chinese

  75. Service kind : Complete Main

  76. Default : Yes

  77. Forced : No

  78. Original source medium : Blu-ray


  79. Text #1

  80. ID : 4

  81. ID in the original source medium : 4610 (0x1202)

  82. Format : PGS

  83. Muxing mode : zlib

  84. Codec ID : S_HDMV/PGS

  85. Codec ID/Info : Picture based subtitle format used on BDs/HD-DVDs

  86. Duration : 1 h 42 min

  87. Bit rate : 59.3 kb/s

  88. Count of elements : 4427

  89. Stream size : 43.3 MiB (1%)

  90. Title : chs

  91. Language : Chinese

  92. Default : Yes

  93. Forced : No

  94. Original source medium : Blu-ray


  95. Text #2

  96. ID : 5

  97. ID in the original source medium : 4608 (0x1200)

  98. Format : PGS

  99. Muxing mode : zlib

  100. Codec ID : S_HDMV/PGS

  101. Codec ID/Info : Picture based subtitle format used on BDs/HD-DVDs

  102. Duration : 1 h 42 min

  103. Bit rate : 73.9 kb/s

  104. Count of elements : 4427

  105. Stream size : 53.9 MiB (1%)

  106. Title : cht-HK

  107. Language : Chinese

  108. Default : No

  109. Forced : No

  110. Original source medium : Blu-ray


  111. Text #3

  112. ID : 6

  113. ID in the original source medium : 4609 (0x1201)

  114. Format : PGS

  115. Muxing mode : zlib

  116. Codec ID : S_HDMV/PGS

  117. Codec ID/Info : Picture based subtitle format used on BDs/HD-DVDs

  118. Duration : 1 h 42 min

  119. Bit rate : 66.9 kb/s

  120. Count of elements : 4427

  121. Stream size : 48.8 MiB (1%)

  122. Title : cht-TWN

  123. Language : Chinese

  124. Default : No

  125. Forced : No

  126. Original source medium : Blu-ray


  127. Text #4

  128. ID : 7

  129. ID in the original source medium : 4611 (0x1203)

  130. Format : PGS

  131. Muxing mode : zlib

  132. Codec ID : S_HDMV/PGS

  133. Codec ID/Info : Picture based subtitle format used on BDs/HD-DVDs

  134. Duration : 1 h 42 min

  135. Bit rate : 66.0 kb/s

  136. Count of elements : 4427

  137. Stream size : 48.2 MiB (1%)

  138. Language : English

  139. Default : No

  140. Forced : No

  141. Original source medium : Blu-ray


  142. Menu

  143. 00:00:00.000 : Chapter 01

  144. 00:05:01.125 : Chapter 02

  145. 00:10:34.875 : Chapter 03

  146. 00:15:32.041 : Chapter 04

  147. 00:20:40.625 : Chapter 05

  148. 00:25:56.791 : Chapter 06

  149. 00:30:49.541 : Chapter 07

  150. 00:34:59.875 : Chapter 08

  151. 00:41:48.458 : Chapter 09

  152. 00:46:18.833 : Chapter 10

  153. 00:52:32.375 : Chapter 11

  154. 00:55:40.541 : Chapter 12

  155. 01:01:55.000 : Chapter 13

  156. 01:04:32.833 : Chapter 14

  157. 01:10:01.958 : Chapter 15

  158. 01:15:18.875 : Chapter 16

  159. 01:21:49.083 : Chapter 17

  160. 01:28:37.041 : Chapter 18

  161. 01:35:02.791 : Chapter 19

  162. 01:40:29.041 : Chapter 20


文件下载


除非特别注明,本文『天生爱情狂[国粤语配音/中文字幕].Natural.Born.Lovers.2012.1080p.BluRay.x265.10bit.DTS.2Audio 6.81G』来源于互联网机器人自动抓取,非本站原创。 浮游电影网不对本文拥有版权,如有侵犯,请联系邮箱:fuyouu#yandex.com[#换成@]投诉。我们会在15个工作日内删除。 但烦请转载时请标明出处:“本文转载于『浮游电影网』,原文地址:https://www.fuyouu.com/14490.html

评论吧骚年!

发表你的见解   

昵称*

E-mail*(建议输入,以便收到博主回复的提示邮件)

验证码*

您可以使用eMule或eMule Mod(Windows)、aMule(Win、Linux、Mac)等软件下载eD2k链接。。
eMule收藏集(.emulecollection)文件是您选中的所有链接的列表文件。eMule可以直接下载它们。
按住SHIFT键选择可以选中多个选择框。
可用文件名和大小选择器来选择文件。
文件名选择器帮您根据文件名称或后缀来选择文件。不分大小写。
符号使用:
和:空格( )、+
不包含:-
或:|
转义:一对英文引号("");
匹配开头:^
匹配结尾:$
例如:
选中所有名称中包含有“eMule”或“0.49c”字眼,但不包含有“exe”字眼的:emule|0.49c -exe
选中所有名称的开头是“eMule”,结尾是“0.49c”的:^emule 0.49c$
选中所有名称中带有“eMule 0.49c”的(必须是“eMule 0.49c”,中间没有别的字符,不能是“eMule fake 0.49c”),需要转义:"emule 0.49c"
大小选择器帮您根据文件大小选择文件。