当前位置: 首页 >> 国产电影 >> 野妈妈[国语配音/中文字幕].Ye.ma.ma.1985.1080p.WEB-DL.H264.AAC 1.22GB >> 正文

野妈妈[国语配音/中文字幕].Ye.ma.ma.1985.1080p.WEB-DL.H264.AAC 1.22GB

2021年09月21日 22:01:43     电影发布:来源于网络     电影分类:国产电影     评论(0)    

野妈妈[国语配音/中文字幕].Ye.ma.ma.1985.1080p.WEB DL.H264.AAC 1.22GB 剧情片 国产电影  第1张

◎译 名 野妈妈 / Ye ma ma

◎年 代 1985

◎产 地 中国大陆

◎类 别 剧情

◎语 言 汉语普通话

◎上映日期 1985

◎IMDb链接 https://www.imdb.com/title/tt0334745/

◎豆瓣评分 2.8/10 (1428人评价)

◎豆瓣链接 https://movie.douban.com/subject/1306344/

◎导 演 姚守岗 Shougang Yao (id:1317803)

◎编 剧 方义华 Wenhua Fang (id:1324564)

姚守岗 Shougang Yao (id:1317803)

◎演 员 迟蓬 Peng Chi (id:1314926)

米迪奇 Diqi Mi (id:1372370)

徐为平 Weiping Xu (id:1372107)

位北原 Beiyuan Wei (id:1357316)

贾六 Liu Jia (id:1367899)

张慕芹 Muqin Zhang (id:1372371)

张亮 Liang Zhang (id:1416685)

丁惟敏 Weimin Ding (id:1370713)

顾长宁 Changning Gu (id:1332963)

◎标 签 导演是畜生 / 畜生拍的电影 / 文革 / 中国电影 / 大陆 / 中国 / 1985 / 剧情

◎简 介

故事发生在1970年代。某日黄昏,罗二叔的女儿碧桃(迟蓬 饰)赶着一辆破车前往罗家村,车上坐着被打倒的原地委书记谷铁铮(位北原 饰)以及华侨出身的戈弋(米迪奇 饰)。戈弋怀抱儿子沉香,妻子不久前死于干校。在碧桃家虽有全家人照顾,但带一个吃奶的孩子毕竟很不方便。戈弋无奈写信向亲戚求助帮助抚养儿子,不料此举招来牢狱之灾。碧桃出于同情竭力相帮,被恋人玉生(徐为平 饰)发觉。公社把工农兵大学生名额给了根红苗正的碧桃和玉生,在填表时碧桃遭革委会徐主任调戏,她愤然回家。不久村里传出她和戈弋之间莫须有的绯闻,罗二叔(贾六 饰)自感老脸没处撂,一气之下将她赶出家门。碧桃忍辱负重,决心把沉香抚养大......

  1. ##### MediaInfo ######

  2. General

  3. Complete name : 野妈妈[email protected]

  4. Format : MPEG-4

  5. Format profile : Base Media

  6. Codec ID : isom (isom/iso2/avc1/mp41)

  7. File size : 1.21 GiB

  8. Duration : 1 h 29 min

  9. Overall bit rate : 1 950 kb/s

  10. Writing application : Lavf58.76.100


  11. Video

  12. ID : 1

  13. Format : AVC

  14. Format/Info : Advanced Video Codec

  15. Format profile : [email protected]

  16. Format settings : CABAC / 3 Ref Frames

  17. Format settings, CABAC : Yes

  18. Format settings, Reference frames : 3 frames

  19. Codec ID : avc1

  20. Codec ID/Info : Advanced Video Coding

  21. Duration : 1 h 29 min

  22. Bit rate : 1 820 kb/s

  23. Width : 1 920 pixels

  24. Height : 1 064 pixels

  25. Display aspect ratio : 16:9

  26. Frame rate mode : Constant

  27. Frame rate : 24.000 FPS

  28. Color space : YUV

  29. Chroma subsampling : 4:2:0

  30. Bit depth : 8 bits

  31. Scan type : Progressive

  32. Bits/(Pixel*Frame) : 0.037

  33. Stream size : 1.13 GiB (93%)

  34. Writing library : qiyi.com vtc-test

  35. Color range : Limited

  36. Color primaries : BT.709

  37. Transfer characteristics : BT.709

  38. Matrix coefficients : BT.709

  39. Codec configuration box : avcC


  40. Audio

  41. ID : 2

  42. Format : AAC LC

  43. Format/Info : Advanced Audio Codec Low Complexity

  44. Codec ID : mp4a-40-2

  45. Duration : 1 h 29 min

  46. Bit rate mode : Constant

  47. Bit rate : 125 kb/s

  48. Channel(s) : 2 channels

  49. Channel layout : L R

  50. Sampling rate : 44.1 kHz

  51. Frame rate : 43.066 FPS (1024 SPF)

  52. Compression mode : Lossy

  53. Stream size : 79.2 MiB (6%)

  54. Default : Yes

  55. Alternate group : 1


文件下载


除非特别注明,本文『野妈妈[国语配音/中文字幕].Ye.ma.ma.1985.1080p.WEB-DL.H264.AAC 1.22GB』来源于互联网机器人自动抓取,非本站原创。 浮游电影网不对本文拥有版权,如有侵犯,请联系邮箱:fuyouu#yandex.com[#换成@]投诉。我们会在15个工作日内删除。 但烦请转载时请标明出处:“本文转载于『浮游电影网』,原文地址:https://www.fuyouu.com/14489.html

评论吧骚年!

发表你的见解   

昵称*

E-mail*(建议输入,以便收到博主回复的提示邮件)

验证码*

您可以使用eMule或eMule Mod(Windows)、aMule(Win、Linux、Mac)等软件下载eD2k链接。。
eMule收藏集(.emulecollection)文件是您选中的所有链接的列表文件。eMule可以直接下载它们。
按住SHIFT键选择可以选中多个选择框。
可用文件名和大小选择器来选择文件。
文件名选择器帮您根据文件名称或后缀来选择文件。不分大小写。
符号使用:
和:空格( )、+
不包含:-
或:|
转义:一对英文引号("");
匹配开头:^
匹配结尾:$
例如:
选中所有名称中包含有“eMule”或“0.49c”字眼,但不包含有“exe”字眼的:emule|0.49c -exe
选中所有名称的开头是“eMule”,结尾是“0.49c”的:^emule 0.49c$
选中所有名称中带有“eMule 0.49c”的(必须是“eMule 0.49c”,中间没有别的字符,不能是“eMule fake 0.49c”),需要转义:"emule 0.49c"
大小选择器帮您根据文件大小选择文件。