当前位置: 首页 >> 动画电影 >> 三只小猪2[国语配音/中文字幕].The.Three.Pigs.2.2017.WEB-DL.1080p.H264.AAC 3.07GB >> 正文

三只小猪2[国语配音/中文字幕].The.Three.Pigs.2.2017.WEB-DL.1080p.H264.AAC 3.07GB

2021年09月21日 22:00:44     电影发布:来源于网络     电影分类:动画电影     评论(0)    

三只小猪2[国语配音/中文字幕].The.Three.Pigs.2.2017.WEB DL.1080p.H264.AAC 3.07GB 动画片 动画电影  第1张

◎译 名 三只小猪2 / 三只小猪与功夫潘达

◎年 代 2017

◎产 地 中国大陆

◎类 别 动画

◎语 言 汉语普通话

◎上映日期 2017-05-27(中国大陆) / 2018-12-08(中国大陆重映)

◎IMDb链接 https://www.imdb.com/title//

◎豆瓣评分 4.2/10 (519人评价)

◎豆瓣链接 https://movie.douban.com/subject/27021323/

◎片 长 80分钟

◎导 演 刘炜 Wei Liu (id:1349855)

◎编 剧 王超远 Chaoyuan Wang (id:1373612)

王骏 Jun Wang (id:1336670)

◎演 员 王晓彤 Xiaotong Wang (id:1332379)

李晔 Ye Li (id:1326522)

洪海天 Haitian Hong (id:1328170)

严丽祯 Lizhen Yan (id:1328395)

贾邱 Qiu Jia (id:1373615)

骆妍倩 Yanqian Luo (id:1354200)

刘北辰 Beichen Liu (id:1328394)

胡谦 Qian Hu (id:1328393)

◎标 签 动画 / 儿童 / 搞笑 / 喜剧 / 2017 / 冒险 / 中国大陆 / 励志

◎简 介

三只小猪因顽皮遇险,被功夫侠阿潘和阿达所救,因此小猪们死缠烂打跟着两位学功夫。可是,当小猪们发现两位大侠并不像自己想象中那般厉害,便决心靠自己的力量打败功夫怪狼,却因为冲动莽撞再次引来了更大的灾难。功夫怪狼以三只小猪为要挟,逼阿潘与阿达再次出手,能力与责任、正义与力量,一场森林王国的巅峰对决就此展开。

  1. ##### MediaInfo ######

  2. General

  3. Complete name : The Three Pigs 2 2017 WEB-DL 1080p H264 [email protected]

  4. Format : MPEG-4

  5. Format profile : Base Media

  6. Codec ID : isom (isom/iso2/avc1/mp41)

  7. File size : 3.07 GiB

  8. Duration : 1 h 11 min

  9. Overall bit rate mode : Variable

  10. Overall bit rate : 6 130 kb/s

  11. Writing application : Lavf58.29.100


  12. Video

  13. ID : 1

  14. Format : AVC

  15. Format/Info : Advanced Video Codec

  16. Format profile : [email protected]

  17. Format settings : CABAC / 1 Ref Frames

  18. Format settings, CABAC : Yes

  19. Format settings, Reference frames : 1 frame

  20. Codec ID : avc1

  21. Codec ID/Info : Advanced Video Coding

  22. Duration : 1 h 11 min

  23. Bit rate mode : Variable

  24. Bit rate : 6 013 kb/s

  25. Maximum bit rate : 16.0 Mb/s

  26. Width : 1 920 pixels

  27. Height : 1 080 pixels

  28. Display aspect ratio : 16:9

  29. Frame rate mode : Constant

  30. Frame rate : 25.000 FPS

  31. Color space : YUV

  32. Chroma subsampling : 4:2:0

  33. Bit depth : 8 bits

  34. Scan type : Progressive

  35. Bits/(Pixel*Frame) : 0.116

  36. Stream size : 3.01 GiB (98%)

  37. Codec configuration box : avcC


  38. Audio

  39. ID : 2

  40. Format : AAC LC SBR

  41. Format/Info : Advanced Audio Codec Low Complexity with Spectral Band Replication

  42. Commercial name : HE-AAC

  43. Format settings : Explicit

  44. Codec ID : mp4a-40-2

  45. Duration : 1 h 11 min

  46. Bit rate mode : Constant

  47. Bit rate : 128 kb/s

  48. Channel(s) : 2 channels

  49. Channel layout : L R

  50. Sampling rate : 48.0 kHz

  51. Frame rate : 23.438 FPS (2048 SPF)

  52. Compression mode : Lossy

  53. Stream size : 65.7 MiB (2%)

  54. Default : Yes

  55. Alternate group : 1


文件下载


除非特别注明,本文『三只小猪2[国语配音/中文字幕].The.Three.Pigs.2.2017.WEB-DL.1080p.H264.AAC 3.07GB』来源于互联网机器人自动抓取,非本站原创。 浮游电影网不对本文拥有版权,如有侵犯,请联系邮箱:fuyouu#yandex.com[#换成@]投诉。我们会在15个工作日内删除。 但烦请转载时请标明出处:“本文转载于『浮游电影网』,原文地址:https://www.fuyouu.com/14488.html

评论吧骚年!

发表你的见解   

昵称*

E-mail*(建议输入,以便收到博主回复的提示邮件)

验证码*

您可以使用eMule或eMule Mod(Windows)、aMule(Win、Linux、Mac)等软件下载eD2k链接。。
eMule收藏集(.emulecollection)文件是您选中的所有链接的列表文件。eMule可以直接下载它们。
按住SHIFT键选择可以选中多个选择框。
可用文件名和大小选择器来选择文件。
文件名选择器帮您根据文件名称或后缀来选择文件。不分大小写。
符号使用:
和:空格( )、+
不包含:-
或:|
转义:一对英文引号("");
匹配开头:^
匹配结尾:$
例如:
选中所有名称中包含有“eMule”或“0.49c”字眼,但不包含有“exe”字眼的:emule|0.49c -exe
选中所有名称的开头是“eMule”,结尾是“0.49c”的:^emule 0.49c$
选中所有名称中带有“eMule 0.49c”的(必须是“eMule 0.49c”,中间没有别的字符,不能是“eMule fake 0.49c”),需要转义:"emule 0.49c"
大小选择器帮您根据文件大小选择文件。