当前位置: 首页 >> 日韩电影 >> 云霄飞车[中文字幕].Fasten.Your.Seatbelt.2013.1080p.FriDay.WEB-DL.H264.AAC 2.48GB >> 正文

云霄飞车[中文字幕].Fasten.Your.Seatbelt.2013.1080p.FriDay.WEB-DL.H264.AAC 2.48GB

2021年09月21日 21:59:28     电影发布:来源于网络     电影分类:日韩电影     评论(0)    

云霄飞车[中文字幕].Fasten.Your.Seatbelt.2013.1080p.FriDay.WEB DL.H264.AAC 2.48GB 喜剧片 日韩电影  第1张

◎译 名 云霄飞车 / 系紧你的安全带 / 过山车 / Fasten Your Seatbelt

◎片 名 ?????

◎年 代 2013

◎产 地 韩国

◎类 别 喜剧

◎语 言 韩语

◎上映日期 2013-10-17(韩国)

◎IMDb链接 https://www.imdb.com/title/tt3163404/

◎豆瓣评分 6.2/10 (2273人评价)

◎豆瓣链接 https://movie.douban.com/subject/20284848/

◎片 长 94分钟

◎导 演 河正宇 Jung-woo Ha (id:1032680)

◎编 剧 河正宇 Jung-woo Ha (id:1032680)

◎演 员 郑敬淏 Kyeong-ho Jeong (id:1275584)

金成钧 Sung-Kyun Kim (id:1324507)

金秉玉 Byeong-ok Kim (id:1319357)

杨志洙 Ji-soo Yang (id:1389427)

李圭福 Kyoo-bok Lee (id:1381923)

高圭弼 Ko Kyu-pil (id:1381660)

崔圭换 Kyu-hwan Choi (id:1381262)

林贤成 Hyun-Sung Lim (id:1335611)

金在华 Jae-hwa Kim (id:1339671)

高圣熙 Sung-Hee Ko (id:1339313)

马东锡 Tong-Seok Ma (id:1322205)

◎标 签 韩国 / 河正宇 / 喜剧 / 韩国电影 / 郑京浩 / 2013 / 黑色幽默 / 电影

◎简 介

一架载着韩流明星马俊圭和其他乘客、机舱乘务员等人的飞机遇上了意想不到的飓风。飞机撞上强烈气流后开始坠落,在飞机下降过程中,舱内人员之前发生的种种事件。该片以喜剧形式讲述一个灾难故事,由河正宇亲自编写了剧本,并担任此片导演。这部作为他人生中首次执导的作品,备受影迷们的关注。

◎获奖情况 (共1项)

第50届百想艺术大赏 (2014)

电影类 最佳新人导演(提名)

└──河正宇 (id:1032680)

  1. ##### MediaInfo ######

  2. General

  3. Unique ID : 90907589805906227327072724229328287157 (0x44642A395F38E3299A1030C0EA4935B5)

  4. Complete name : [email protected]DDQ.COM.mkv

  5. Format : Matroska

  6. Format version : Version 4

  7. File size : 2.48 GiB

  8. Duration : 1 h 33 min

  9. Overall bit rate : 3 803 kb/s

  10. Encoded date : UTC 2021-09-20 03:04:04

  11. Writing application : mkvmerge v56.1.0 ('My Friend') 64-bit

  12. Writing library : libebml v1.4.2 + libmatroska v1.6.4


  13. Video

  14. ID : 1

  15. Format : AVC

  16. Format/Info : Advanced Video Codec

  17. Format profile : [email protected]

  18. Format settings : CABAC / 1 Ref Frames

  19. Format settings, CABAC : Yes

  20. Format settings, Reference frames : 1 frame

  21. Format settings, GOP : M=1, N=60

  22. Codec ID : V_MPEG4/ISO/AVC

  23. Duration : 1 h 33 min

  24. Bit rate mode : Constant

  25. Bit rate : 3 675 kb/s

  26. Nominal bit rate : 4 000 kb/s

  27. Width : 1 920 pixels

  28. Height : 1 080 pixels

  29. Display aspect ratio : 16:9

  30. Frame rate mode : Constant

  31. Frame rate : 29.970 (30000/1001/53354) FPS

  32. Color space : YUV

  33. Chroma subsampling : 4:2:0

  34. Bit depth : 8 bits

  35. Scan type : Progressive

  36. Bits/(Pixel*Frame) : 0.059

  37. Stream size : 2.40 GiB (97%)

  38. Language : English

  39. Default : Yes

  40. Forced : No


  41. Audio

  42. ID : 2

  43. Format : AAC LC

  44. Format/Info : Advanced Audio Codec Low Complexity

  45. Codec ID : A_AAC-2

  46. Duration : 1 h 33 min

  47. Bit rate : 125 kb/s

  48. Channel(s) : 2 channels

  49. Channel layout : L R

  50. Sampling rate : 48.0 kHz

  51. Frame rate : 46.875 FPS (1024 SPF)

  52. Compression mode : Lossy

  53. Stream size : 83.7 MiB (3%)

  54. Title : Korean

  55. Language : Korean

  56. Default : Yes

  57. Forced : No


  58. Text #1

  59. ID : 3

  60. Format : UTF-8

  61. Codec ID : S_TEXT/UTF8

  62. Codec ID/Info : UTF-8 Plain Text

  63. Duration : 1 h 28 min

  64. Bit rate : 74 b/s

  65. Count of elements : 2132

  66. Stream size : 48.2 KiB (0%)

  67. Title : Chinese Simplified

  68. Language : Chinese

  69. Default : Yes

  70. Forced : No


  71. Text #2

  72. ID : 4

  73. Format : UTF-8

  74. Codec ID : S_TEXT/UTF8

  75. Codec ID/Info : UTF-8 Plain Text

  76. Duration : 1 h 28 min

  77. Bit rate : 74 b/s

  78. Count of elements : 2132

  79. Stream size : 48.2 KiB (0%)

  80. Title : Chinese Traditional

  81. Language : Chinese

  82. Default : No

  83. Forced : No



文件下载


除非特别注明,本文『云霄飞车[中文字幕].Fasten.Your.Seatbelt.2013.1080p.FriDay.WEB-DL.H264.AAC 2.48GB』来源于互联网机器人自动抓取,非本站原创。 浮游电影网不对本文拥有版权,如有侵犯,请联系邮箱:fuyouu#yandex.com[#换成@]投诉。我们会在15个工作日内删除。 但烦请转载时请标明出处:“本文转载于『浮游电影网』,原文地址:https://www.fuyouu.com/14487.html

评论吧骚年!

发表你的见解   

昵称*

E-mail*(建议输入,以便收到博主回复的提示邮件)

验证码*

您可以使用eMule或eMule Mod(Windows)、aMule(Win、Linux、Mac)等软件下载eD2k链接。。
eMule收藏集(.emulecollection)文件是您选中的所有链接的列表文件。eMule可以直接下载它们。
按住SHIFT键选择可以选中多个选择框。
可用文件名和大小选择器来选择文件。
文件名选择器帮您根据文件名称或后缀来选择文件。不分大小写。
符号使用:
和:空格( )、+
不包含:-
或:|
转义:一对英文引号("");
匹配开头:^
匹配结尾:$
例如:
选中所有名称中包含有“eMule”或“0.49c”字眼,但不包含有“exe”字眼的:emule|0.49c -exe
选中所有名称的开头是“eMule”,结尾是“0.49c”的:^emule 0.49c$
选中所有名称中带有“eMule 0.49c”的(必须是“eMule 0.49c”,中间没有别的字符,不能是“eMule fake 0.49c”),需要转义:"emule 0.49c"
大小选择器帮您根据文件大小选择文件。