当前位置: 首页 >> 海外电影 >> 冒险者[中文字幕].The.Last.Adventure.1967.1080p.FriDay.WEB-DL.H264.AAC 3.06GB >> 正文

冒险者[中文字幕].The.Last.Adventure.1967.1080p.FriDay.WEB-DL.H264.AAC 3.06GB

2021年09月21日 21:58:29     电影发布:来源于网络     电影分类:海外电影     评论(0)    

冒险者[中文字幕].The.Last.Adventure.1967.1080p.FriDay.WEB DL.H264.AAC 3.06GB 冒险片 剧情片 海外电影  第1张

◎译 名 冒险者 / Los aventureros / The Last Adventure

◎片 名 Les aventuriers

◎年 代 1967

◎产 地 法国 / 意大利

◎类 别 剧情 / 冒险

◎语 言 法语

◎上映日期 1967-04-12

◎IMDb链接 https://www.imdb.com/title/tt0061376/

◎豆瓣评分 7.1/10 (235人评价)

◎豆瓣链接 https://movie.douban.com/subject/1305845/

◎片 长 112 分钟

◎导 演 罗贝尔·恩里科 Robert Enrico (id:1001027)

◎编 剧 罗贝尔·恩里科 Robert Enrico (id:1001027)

何塞·乔凡尼 José Giovanni (id:1010027)

◎演 员 阿兰·德龙 Alain Delon (id:1041174)

利诺·文图拉 Lino Ventura (id:1009661)

乔安娜·辛库斯 Joanna Shimkus (id:1040867)

塞尔日·雷吉亚尼 Serge Reggiani (id:1141002)

汉斯·迈尔 Hans Meyer (id:1115981)

奥迪勒·普瓦松 Odile Poisson (id:1126443)

伊雷娜·通克 Irène Tunc (id:1156814)

瓦莱里·因基伊诺夫 Valéry Inkijinoff (id:1108572)

居伊·德洛姆 Guy Delorme (id:1083941)

保罗·克罗谢 Paul Crauchet (id:1067844)

Gérard Beytout Gérard Beytout (id:1053866)

弗朗索瓦·德·鲁拜克斯 Fran?ois de Roubaix (id:1001416)

Jean Boffety Jean Boffety (id:1020409)

Paco Rabanne Paco Rabanne (id:1006471)

伯纳德·奎桑 Bernard Queysanne (id:1019874)

◎标 签 法国 / 冒险 / AlainDelon / 阿兰·德龙 / 剧情 / 法国电影 / 意大利 / 1960s

◎简 介

冒险片,讲两个好朋友被人家涮了,其中一个因此失去了飞机驾驶执照。骗他们的人假装悔过,告诉他们有一架飞机坠毁在刚果的海底,飞机上装满了珍宝。两人前去盗宝,一个喜欢玩艺术的女子跟他们同行,像对待兄弟那样对待他俩。刚果之行当然没有那么简单,他们必须碾转到法国南部才能最终完成任务。

  1. ##### MediaInfo ######

  2. General

  3. Unique ID : 317392945037186478430177569612893762772 (0xEEC7A85EECBD5B3D10393D22DE27B4D4)

  4. Complete name : [email protected]Q.COM.mkv

  5. Format : Matroska

  6. Format version : Version 4

  7. File size : 3.05 GiB

  8. Duration : 1 h 52 min

  9. Overall bit rate : 3 876 kb/s

  10. Encoded date : UTC 2021-09-20 04:08:21

  11. Writing application : mkvmerge v56.1.0 ('My Friend') 64-bit

  12. Writing library : libebml v1.4.2 + libmatroska v1.6.4


  13. Video

  14. ID : 1

  15. Format : AVC

  16. Format/Info : Advanced Video Codec

  17. Format profile : [email protected]

  18. Format settings : CABAC / 1 Ref Frames

  19. Format settings, CABAC : Yes

  20. Format settings, Reference frames : 1 frame

  21. Format settings, GOP : M=1, N=60

  22. Codec ID : V_MPEG4/ISO/AVC

  23. Duration : 1 h 52 min

  24. Bit rate mode : Constant

  25. Bit rate : 3 748 kb/s

  26. Nominal bit rate : 4 000 kb/s

  27. Width : 1 920 pixels

  28. Height : 1 080 pixels

  29. Display aspect ratio : 16:9

  30. Frame rate mode : Constant

  31. Frame rate : 29.970 (30000/1001/53354) FPS

  32. Color space : YUV

  33. Chroma subsampling : 4:2:0

  34. Bit depth : 8 bits

  35. Scan type : Progressive

  36. Bits/(Pixel*Frame) : 0.060

  37. Stream size : 2.95 GiB (97%)

  38. Language : English

  39. Default : Yes

  40. Forced : No


  41. Audio

  42. ID : 2

  43. Format : AAC LC

  44. Format/Info : Advanced Audio Codec Low Complexity

  45. Codec ID : A_AAC-2

  46. Duration : 1 h 52 min

  47. Bit rate : 125 kb/s

  48. Channel(s) : 2 channels

  49. Channel layout : L R

  50. Sampling rate : 48.0 kHz

  51. Frame rate : 46.875 FPS (1024 SPF)

  52. Compression mode : Lossy

  53. Stream size : 101 MiB (3%)

  54. Language : French

  55. Default : Yes

  56. Forced : No


  57. Text #1

  58. ID : 3

  59. Format : UTF-8

  60. Codec ID : S_TEXT/UTF8

  61. Codec ID/Info : UTF-8 Plain Text

  62. Duration : 1 h 51 min

  63. Bit rate : 19 b/s

  64. Count of elements : 978

  65. Stream size : 16.2 KiB (0%)

  66. Title : Chinese Simplified

  67. Language : Chinese

  68. Default : Yes

  69. Forced : No


  70. Text #2

  71. ID : 4

  72. Format : UTF-8

  73. Codec ID : S_TEXT/UTF8

  74. Codec ID/Info : UTF-8 Plain Text

  75. Duration : 1 h 51 min

  76. Bit rate : 19 b/s

  77. Count of elements : 978

  78. Stream size : 16.2 KiB (0%)

  79. Title : Chinese Traditional

  80. Language : Chinese

  81. Default : No

  82. Forced : No


文件下载


除非特别注明,本文『冒险者[中文字幕].The.Last.Adventure.1967.1080p.FriDay.WEB-DL.H264.AAC 3.06GB』来源于互联网机器人自动抓取,非本站原创。 浮游电影网不对本文拥有版权,如有侵犯,请联系邮箱:fuyouu#yandex.com[#换成@]投诉。我们会在15个工作日内删除。 但烦请转载时请标明出处:“本文转载于『浮游电影网』,原文地址:https://www.fuyouu.com/14486.html

评论吧骚年!

发表你的见解   

昵称*

E-mail*(建议输入,以便收到博主回复的提示邮件)

验证码*

您可以使用eMule或eMule Mod(Windows)、aMule(Win、Linux、Mac)等软件下载eD2k链接。。
eMule收藏集(.emulecollection)文件是您选中的所有链接的列表文件。eMule可以直接下载它们。
按住SHIFT键选择可以选中多个选择框。
可用文件名和大小选择器来选择文件。
文件名选择器帮您根据文件名称或后缀来选择文件。不分大小写。
符号使用:
和:空格( )、+
不包含:-
或:|
转义:一对英文引号("");
匹配开头:^
匹配结尾:$
例如:
选中所有名称中包含有“eMule”或“0.49c”字眼,但不包含有“exe”字眼的:emule|0.49c -exe
选中所有名称的开头是“eMule”,结尾是“0.49c”的:^emule 0.49c$
选中所有名称中带有“eMule 0.49c”的(必须是“eMule 0.49c”,中间没有别的字符,不能是“eMule fake 0.49c”),需要转义:"emule 0.49c"
大小选择器帮您根据文件大小选择文件。