当前位置: 首页 >> 海外电影 >> 谁在偷看奥利弗[简繁字幕].Whos.Watching.Oliver.2017.1080p.BluRay.x265.10bit.DD.5.1.MNHD 5.09GB >> 正文

谁在偷看奥利弗[简繁字幕].Whos.Watching.Oliver.2017.1080p.BluRay.x265.10bit.DD.5.1.MNHD 5.09GB

2021年09月21日 21:57:31     电影发布:来源于网络     电影分类:海外电影     评论(0)    

谁在偷看奥利弗[简繁字幕].Whos.Watching.Oliver.2017.1080p.BluRay.x265.10bit.DD.5.1.MNHD 5.09GB 恐怖片 剧情片 海外电影  第1张

◎译 名 谁在偷看奥利弗

◎片 名 Who's Watching Oliver

◎年 代 2017

◎产 地 泰国 / 美国

◎类 别 剧情 / 恐怖

◎语 言 英语

◎上映日期 2017-02(美国独立恐怖电影奖)

◎IMDb链接 https://www.imdb.com/title/tt6158692/

◎豆瓣链接 https://movie.douban.com/subject/26981707/

◎片 长 87分钟

◎演 员 莎拉·玛卢库·莱恩 Sara Malakul Lane (id:1199503)

◎标 签 暴力 / 恐怖 / 美国 / 心理 / cult / 情色 / 养眼 / 伦理

◎简 介

讲述了一个精神不稳定的孤独者在被迫的生活中迷失的故事。到了晚上,奥利弗漫无目的地在街上和酒吧里游荡,这只能说是一场真正令人震惊和羞辱的杀人狂欢。他唯一的救世主和可能的出路,他是不顾一切地逃离的形式,美丽的索菲亚与她甜蜜的古怪和天真的危险......

  1. ##### MediaInfo ######

  2. General

  3. Unique ID : 142921695986777964204860394613465031051 (0x6B85B7A78CB497F38133413C556E218B)

  4. Complete name : Whos[email protected]BBQDDQ.COM.mkv

  5. Format : Matroska

  6. Format version : Version 4

  7. File size : 5.09 GiB

  8. Duration : 1 h 26 min

  9. Overall bit rate : 8 454 kb/s

  10. Movie name : Whos[email protected]BBQDDQ.COM

  11. Encoded date : UTC 2021-09-19 15:21:06

  12. Writing application : mkvmerge v53.0.0 ('Fool's Gold') 64-bit

  13. Writing library : libebml v1.4.1 + libmatroska v1.6.2


  14. Video

  15. ID : 1

  16. Format : HEVC

  17. Format/Info : High Efficiency Video Coding

  18. Format profile : Main [email protected]@High

  19. Codec ID : V_MPEGH/ISO/HEVC

  20. Duration : 1 h 26 min

  21. Bit rate : 7 785 kb/s

  22. Width : 1 920 pixels

  23. Height : 816 pixels

  24. Display aspect ratio : 2.35:1

  25. Frame rate mode : Constant

  26. Frame rate : 23.976 (24000/1001/53354) FPS

  27. Color space : YUV

  28. Chroma subsampling : 4:2:0

  29. Bit depth : 10 bits

  30. Bits/(Pixel*Frame) : 0.207

  31. Stream size : 4.69 GiB (92%)

  32. Writing library : x265 3.5+1-f0c1022b6:[Linux][GCC 9.3.0][64 bit] 10bit

  33. Encoding settings : cpuid=533541111039 / frame-threads=3 / numa-pools=11 / wpp / pmode / no-pme / no-psnr / no-ssim / log-level=2 / input-csp=1 / input-res=1920x816 / interlace=0 / total-frames=124038 / level-idc=0 / high-tier=1 / uhd-bd=0 / ref=4 / no-allow-non-conformance / no-repeat-headers / annexb / no-aud / no-hrd / info / hash=0 / no-temporal-layers / no-open-gop / min-keyint=1 / keyint=250 / gop-lookahead=0 / bframes=6 / b-adapt=2 / b-pyramid / bframe-bias=0 / rc-lookahead=80 / lookahead-slices=0 / NTMzNTQ=uuDQuD2mJt9fsCf / scenecut=40 / hist-scenecut=0 / radl=0 / no-splice / no-intra-refresh / ctu=32 / min-cu-size=8 / no-rect / no-amp / max-tu-size=32 / tu-inter-depth=4 / tu-intra-depth=4 / limit-tu=0 / rdoq-level=2 / dynamic-rd=0.00 / no-ssim-rd / signhide / no-tskip / nr-intra=0 / nr-inter=0 / no-constrained-intra / strong-intra-smoothing / max-merge=5 / limit-refs=0 / no-limit-modes / me=3 / subme=7 / merange=57 / temporal-mvp / no-frame-dup / no-hme / weightp / weightb / no-analyze-src-pics / deblock=-3:-3 / no-sao / no-sao-non-deblock / rd=4 / selective-sao=0 / no-early-skip / no-rskip / no-fast-intra / no-tskip-fast / no-cu-lossless / b-intra / no-splitrd-skip / rdpenalty=0 / psy-rd=1.50 / psy-rdoq=1.00 / no-rd-refine / no-lossless / cbqpoffs=-2 / crqpoffs=-2 / rc=crf / crf=19.9 / qcomp=0.65 / qpstep=4 / stats-write=0 / stats-read=0 / vbv-maxrate=160000 / vbv-bufsize=160000 / vbv-init=0.9 / min-vbv-fullness=50.0 / max-vbv-fullness=80.0 / crf-max=0.0 / crf-min=0.0 / ipratio=1.30 / pbratio=1.20 / aq-mode=1 / aq-strength=1.00 / no-cutree / zone-count=0 / no-strict-cbr / qg-size=8 / no-rc-grain / qpmax=69 / qpmin=0 / no-const-vbv / sar=0 / overscan=0 / videoformat=5 / range=0 / colorprim=1 / transfer=1 / colormatrix=1 / chromaloc=0 / display-window=0 / cll=0,0 / min-luma=0 / max-luma=1023 / log2-max-poc-lsb=8 / vui-timing-info / vui-hrd-info / slices=1 / no-opt-qp-pps / no-opt-ref-list-length-pps / no-multi-pass-opt-rps / scenecut-bias=0.05 / hist-threshold=0.03 / no-opt-cu-delta-qp / no-aq-motion / no-hdr10 / no-hdr10-opt / no-dhdr10-opt / no-idr-recovery-sei / analysis-reuse-level=0 / analysis-save-reuse-level=0 / analysis-load-reuse-level=0 / scale-factor=0 / refine-intra=0 / refine-inter=0 / refine-mv=1 / refine-ctu-distortion=0 / no-limit-sao / ctu-info=0 / no-lowpass-dct / refine-analysis-type=0 / copy-pic=1 / max-ausize-factor=1.0 / no-dynamic-refine / no-single-sei / no-hevc-aq / no-svt / no-field / qp-adaptation-range=1.00 / scenecut-aware-qp=0conformance-window-offsets / right=0 / bottom=0 / NTMzNTQ= / decoder-max-rate=0 / no-vbv-live-multi-pass

  34. Default : Yes

  35. Forced : No

  36. Color range : Limited

  37. Color primaries : BT.709

  38. Transfer characteristics : BT.709

  39. Matrix coefficients : BT.709


  40. Audio

  41. ID : 2

  42. Format : AC-3

  43. Format/Info : Audio Coding 3

  44. Commercial name : Dolby Digital

  45. Codec ID : A_AC3

  46. Duration : 1 h 26 min

  47. Bit rate mode : Constant

  48. Bit rate : 640 kb/s

  49. Channel(s) : 6 channels

  50. Channel layout : L R C LFE Ls Rs

  51. Sampling rate : 48.0 kHz

  52. Frame rate : 31.250 FPS (1536 SPF)

  53. Compression mode : Lossy

  54. Stream size : 395 MiB (8%)

  55. Title : English

  56. Language : English

  57. Service kind : Complete Main

  58. Default : Yes

  59. Forced : No


  60. Text #1

  61. ID : 3

  62. Format : UTF-8

  63. Codec ID : S_TEXT/UTF8

  64. Codec ID/Info : UTF-8 Plain Text

  65. Duration : 1 h 24 min

  66. Bit rate : 56 b/s

  67. Count of elements : 595

  68. Stream size : 34.8 KiB (0%)

  69. Title : Chinese (Simplified)&English

  70. Language : Chinese

  71. Default : Yes

  72. Forced : No


  73. Text #2

  74. ID : 4

  75. Format : UTF-8

  76. Codec ID : S_TEXT/UTF8

  77. Codec ID/Info : UTF-8 Plain Text

  78. Duration : 1 h 24 min

  79. Bit rate : 56 b/s

  80. Count of elements : 595

  81. Stream size : 34.8 KiB (0%)

  82. Title : Chinese (Traditional)&English

  83. Language : Chinese

  84. Default : No

  85. Forced : No


  86. Text #3

  87. ID : 5

  88. Format : UTF-8

  89. Codec ID : S_TEXT/UTF8

  90. Codec ID/Info : UTF-8 Plain Text

  91. Duration : 1 h 24 min

  92. Bit rate : 26 b/s

  93. Count of elements : 595

  94. Stream size : 16.4 KiB (0%)

  95. Title : Chinese (Simplified)

  96. Language : Chinese

  97. Default : No

  98. Forced : No


  99. Text #4

  100. ID : 6

  101. Format : UTF-8

  102. Codec ID : S_TEXT/UTF8

  103. Codec ID/Info : UTF-8 Plain Text

  104. Duration : 1 h 24 min

  105. Bit rate : 26 b/s

  106. Count of elements : 595

  107. Stream size : 16.4 KiB (0%)

  108. Title : Chinese (Traditional)

  109. Language : Chinese

  110. Default : No

  111. Forced : No


  112. Text #5

  113. ID : 7

  114. Format : UTF-8

  115. Codec ID : S_TEXT/UTF8

  116. Codec ID/Info : UTF-8 Plain Text

  117. Duration : 1 h 24 min

  118. Bit rate : 27 b/s

  119. Count of elements : 595

  120. Stream size : 17.2 KiB (0%)

  121. Title : English

  122. Language : Chinese

  123. Default : No

  124. Forced : No


  125. Text #6

  126. ID : 8

  127. Format : UTF-8

  128. Codec ID : S_TEXT/UTF8

  129. Codec ID/Info : UTF-8 Plain Text

  130. Duration : 1 h 24 min

  131. Bit rate : 27 b/s

  132. Count of elements : 595

  133. Stream size : 17.2 KiB (0%)

  134. Title : English

  135. Language : Chinese

  136. Default : No

  137. Forced : No


  138. Text #7

  139. ID : 9

  140. Format : PGS

  141. Muxing mode : zlib

  142. Codec ID : S_HDMV/PGS

  143. Codec ID/Info : Picture based subtitle format used on BDs/HD-DVDs

  144. Duration : 1 h 25 min

  145. Bit rate : 38.5 kb/s

  146. Count of elements : 1446

  147. Stream size : 23.6 MiB (0%)

  148. Title : English

  149. Language : English

  150. Default : No

  151. Forced : No


  152. Menu

  153. 00:00:00.000 : en:Chapter 01

  154. 00:11:52.503 : en:Chapter 02

  155. 00:21:34.793 : en:Chapter 03

  156. 00:31:55.914 : en:Chapter 04

  157. 00:39:23.736 : en:Chapter 05

  158. 00:47:03.237 : en:Chapter 06

  159. 00:57:39.539 : en:Chapter 07

  160. 01:10:31.060 : en:Chapter 08


文件下载


除非特别注明,本文『谁在偷看奥利弗[简繁字幕].Whos.Watching.Oliver.2017.1080p.BluRay.x265.10bit.DD.5.1.MNHD 5.09GB』来源于互联网机器人自动抓取,非本站原创。 浮游电影网不对本文拥有版权,如有侵犯,请联系邮箱:fuyouu#yandex.com[#换成@]投诉。我们会在15个工作日内删除。 但烦请转载时请标明出处:“本文转载于『浮游电影网』,原文地址:https://www.fuyouu.com/14485.html

评论吧骚年!

发表你的见解   

昵称*

E-mail*(建议输入,以便收到博主回复的提示邮件)

验证码*

您可以使用eMule或eMule Mod(Windows)、aMule(Win、Linux、Mac)等软件下载eD2k链接。。
eMule收藏集(.emulecollection)文件是您选中的所有链接的列表文件。eMule可以直接下载它们。
按住SHIFT键选择可以选中多个选择框。
可用文件名和大小选择器来选择文件。
文件名选择器帮您根据文件名称或后缀来选择文件。不分大小写。
符号使用:
和:空格( )、+
不包含:-
或:|
转义:一对英文引号("");
匹配开头:^
匹配结尾:$
例如:
选中所有名称中包含有“eMule”或“0.49c”字眼,但不包含有“exe”字眼的:emule|0.49c -exe
选中所有名称的开头是“eMule”,结尾是“0.49c”的:^emule 0.49c$
选中所有名称中带有“eMule 0.49c”的(必须是“eMule 0.49c”,中间没有别的字符,不能是“eMule fake 0.49c”),需要转义:"emule 0.49c"
大小选择器帮您根据文件大小选择文件。