当前位置: 首页 >> 动画电影 >> 三只小猪与神灯[国语配音/中文字幕].The.Three.Pigs.and.The.Lamp.2015.WEB-DL.1080p.H264.AAC 2.43GB >> 正文

三只小猪与神灯[国语配音/中文字幕].The.Three.Pigs.and.The.Lamp.2015.WEB-DL.1080p.H264.AAC 2.43GB

2021年09月21日 21:55:54     电影发布:来源于网络     电影分类:动画电影     评论(0)    

6149e45f1fc93.jpeg

◎译 名 三只小猪与神灯 / The Three Pigs and The Lamp

◎年 代 2015

◎产 地 中国大陆

◎类 别 喜剧 / 动画 / 冒险

◎语 言 汉语普通话

◎上映日期 2015-06-27(中国大陆)

◎IMDb链接 https://www.imdb.com/title/tt4618818/

◎豆瓣评分 4.3/10 (411人评价)

◎豆瓣链接 https://movie.douban.com/subject/26277352/

◎片 长 80分钟

◎导 演 刘炜 Wei Liu (id:1349855)

◎编 剧 王远超 Yuanchao Wang (id:1349854)

◎演 员 洪海天 Haitian Hong (id:1328170)

李晔 Ye Li (id:1326522)

王燕华 Yanhua Wang (id:1349337)

符冲 Chong Fu (id:1321914)

◎标 签 动画 / 国产动画 / 中国 / 动画电影 / 儿童 / 儿童动画 / 童真 / 经典童话改编

◎简 介

小米(李晔 配音)、当当(王晓彤 配音)和波波(洪海天 配音)是幼儿园里无话不谈的好友,向往着自由生活的三只小猪自然受不了幼儿园中颇多的条条框框,一直想要偷偷溜出去玩。一次偶然中,三只小猪得到了一份神秘的藏宝地图,指出了能够帮助人实现愿望的神灯所在,三人欢天喜地的上路了。

最终,三只小智找到了神灯,却发现没有火种便无法启动神灯,于是,三人将目标又转向了寻找火种。在此途中,三人结识了名为十一郎(王燕华 配音)的小狼,原来,藏宝图原是他的宝物,不幸遗失被小猪们捡到。十一郎愤怒的发誓要夺回本属于它的神灯,于是两方人马展开了和时间的较量。

  1. ##### MediaInfo ######

  2. General

  3. Complete name : The Three Pigs and The Lamp 2015 WEB-DL 1080p H264 [email protected]

  4. Format : MPEG-4

  5. Format profile : Base Media

  6. Codec ID : isom (isom/avc1)

  7. File size : 2.43 GiB

  8. Duration : 1 h 20 min

  9. Overall bit rate mode : Variable

  10. Overall bit rate : 4 332 kb/s

  11. Encoded date : UTC 2021-09-20 10:17:58

  12. Tagged date : UTC 2021-09-20 10:17:58

  13. Video

  14. ID : 1

  15. Format : AVC

  16. Format/Info : Advanced Video Codec

  17. Format profile : [email protected]

  18. Format settings : CABAC / 4 Ref Frames

  19. Format settings, CABAC : Yes

  20. Format settings, Reference frames : 4 frames

  21. Codec ID : avc1

  22. Codec ID/Info : Advanced Video Coding

  23. Duration : 1 h 20 min

  24. Bit rate : 4 194 kb/s

  25. Maximum bit rate : 12.5 Mb/s

  26. Width : 1 920 pixels

  27. Height : 1 080 pixels

  28. Display aspect ratio : 16:9

  29. Frame rate mode : Constant

  30. Frame rate : 25.000 FPS

  31. Color space : YUV

  32. Chroma subsampling : 4:2:0

  33. Bit depth : 8 bits

  34. Scan type : Progressive

  35. Bits/(Pixel*Frame) : 0.081

  36. Stream size : 2.35 GiB (97%)

  37. Encoded date : UTC 2021-09-20 10:17:58

  38. Tagged date : UTC 2021-09-20 10:18:13

  39. Codec configuration box : avcC

  40. Audio

  41. ID : 2

  42. Format : AAC LC

  43. Format/Info : Advanced Audio Codec Low Complexity

  44. Codec ID : mp4a-40-2

  45. Duration : 1 h 20 min

  46. Bit rate mode : Variable

  47. Bit rate : 132 kb/s

  48. Maximum bit rate : 167 kb/s

  49. Channel(s) : 2 channels

  50. Channel layout : L R

  51. Sampling rate : 44.1 kHz

  52. Frame rate : 43.066 FPS (1024 SPF)

  53. Compression mode : Lossy

  54. Stream size : 77.2 MiB (3%)

  55. Encoded date : UTC 2021-09-20 10:18:10

  56. Tagged date : UTC 2021-09-20 10:18:13


文件下载


除非特别注明,本文『三只小猪与神灯[国语配音/中文字幕].The.Three.Pigs.and.The.Lamp.2015.WEB-DL.1080p.H264.AAC 2.43GB』来源于互联网机器人自动抓取,非本站原创。 浮游电影网不对本文拥有版权,如有侵犯,请联系邮箱:fuyouu#yandex.com[#换成@]投诉。我们会在15个工作日内删除。 但烦请转载时请标明出处:“本文转载于『浮游电影网』,原文地址:https://www.fuyouu.com/14484.html

评论吧骚年!

发表你的见解   

昵称*

E-mail*(建议输入,以便收到博主回复的提示邮件)

验证码*

您可以使用eMule或eMule Mod(Windows)、aMule(Win、Linux、Mac)等软件下载eD2k链接。。
eMule收藏集(.emulecollection)文件是您选中的所有链接的列表文件。eMule可以直接下载它们。
按住SHIFT键选择可以选中多个选择框。
可用文件名和大小选择器来选择文件。
文件名选择器帮您根据文件名称或后缀来选择文件。不分大小写。
符号使用:
和:空格( )、+
不包含:-
或:|
转义:一对英文引号("");
匹配开头:^
匹配结尾:$
例如:
选中所有名称中包含有“eMule”或“0.49c”字眼,但不包含有“exe”字眼的:emule|0.49c -exe
选中所有名称的开头是“eMule”,结尾是“0.49c”的:^emule 0.49c$
选中所有名称中带有“eMule 0.49c”的(必须是“eMule 0.49c”,中间没有别的字符,不能是“eMule fake 0.49c”),需要转义:"emule 0.49c"
大小选择器帮您根据文件大小选择文件。