当前位置: 首页 >> 日韩电影 >> 在京都小住[中文字幕].Chokotto.Kyoto.ni.Sundemita.2019.1080p.KKTV.WEB-DL.AAC2.0.x264 2.64GB >> 正文

在京都小住[中文字幕].Chokotto.Kyoto.ni.Sundemita.2019.1080p.KKTV.WEB-DL.AAC2.0.x264 2.64GB

2021年09月21日 21:52:53     电影发布:来源于网络     电影分类:日韩电影     评论(0)    

在京都小住[中文字幕].Chokotto.Kyoto.ni.Sundemita.2019.1080p.KKTV.WEB DL.AAC2.0.x264 2.64GB 家庭片 剧情片 日韩电影  第1张

◎译 名 在京都小住 / 想在京都小住 / 京都小住 / 年末スペシャルドラマ ちょこっと京都に住んでみた。~ / J`ai essayé de vivre un peu à Kyoto~

◎片 名 ちょこっと京都に住んでみた。

◎年 代 2019

◎产 地 日本

◎类 别 剧情 / 家庭

◎语 言 日语

◎上映日期 2019-12-29(日本)

◎IMDb链接 https://www.imdb.com/title/tt11823208/

◎豆瓣评分 8.1/10 (16394人评价)

◎豆瓣链接 https://movie.douban.com/subject/34906732/

◎片 长 74分钟

◎导 演 吉见拓真 Takuma Yoshimi (id:1429656)

◎编 剧 横幕智裕 Tomohiro Yokomaku (id:1395605)

◎演 员 木村文乃 Fumino Kimura (id:1315257)

近藤正臣 Masaomi Kondo (id:1008623)

◎标 签 日本 / 京都 / 治愈 / 生活 / 温情 / 美食 / 文艺 / 小日子

◎简 介

在东京生活的江东佳奈(木村文乃)为了照顾受伤的舅公只身来到了京都。在京都生活多年的舅公大贺茂(近藤正臣)给了外甥女一份自己精心手绘的地图方便她在京都出行。这幅地图记录了一个对父辈而言韵味十足,对年轻人而言新奇特别的京都。谈笑风生,闲情漫步,只有小住片刻才能感受到京都深处的风情。在不同的地方遇到不同的人,佳奈在舅公手绘地图的指引下,渐渐放下心中防备,融入京都。

◎获奖情况 (共1项)

第7届豆瓣电影年度榜单 (2020)

评分最高的日本电影

  1. ##### MediaInfo ######

  2. General

  3. Unique ID : 123738404879498641881129212306640277914 (0x5D172661576E3C353A943732CDAB119A)

  4. Complete name : Chokotto.Kyoto.ni.Sundemita.2019.1080p.KKTV.WEB-DL.AAC2.0.x264-10001[email protected]

  5. Format : Matroska

  6. Format version : Version 4

  7. File size : 2.64 GiB

  8. Duration : 1 h 13 min

  9. Overall bit rate : 5 171 kb/s

  10. Encoded date : UTC 2021-09-20 08:24:49

  11. Writing application : mkvmerge v56.1.0 ('My Friend') 64-bit

  12. Writing library : libebml v1.4.2 + libmatroska v1.6.4


  13. Video

  14. ID : 1

  15. Format : AVC

  16. Format/Info : Advanced Video Codec

  17. Format profile : [email protected]

  18. Format settings : CABAC / 5 Ref Frames

  19. Format settings, CABAC : Yes

  20. Format settings, Reference frames : 5 frames

  21. Format settings, GOP : M=1, N=30

  22. Codec ID : V_MPEG4/ISO/AVC

  23. Duration : 1 h 13 min

  24. Bit rate : 5 000 kb/s

  25. Width : 1 920 pixels

  26. Height : 1 080 pixels

  27. Display aspect ratio : 16:9

  28. Frame rate mode : Constant

  29. Frame rate : 29.970 (30000/1001/53354) FPS

  30. Color space : YUV

  31. Chroma subsampling : 4:2:0

  32. Bit depth : 8 bits

  33. Scan type : Progressive

  34. Bits/(Pixel*Frame) : 0.080

  35. Stream size : 2.54 GiB (96%)

  36. Writing library : x264 core 142

  37. Encoding settings : cabac=1 / ref=5 / deblock=1:0:0 / analyse=0x3:0x113 / me=umh / subme=9 / psy=1 / psy_rd=1.00:0.00 / mixed_ref=1 / me_range=32 / chroma_me=1 / trellis=1 / 8x8dct=1 / cqm=0 / deadzone=21,11 / fast_pskip=1 / chroma_qp_offset=-2 / threads=6 / lookahead_threads=1 / sliced_threads=0 / nr=0 / decimate=1 / interlaced=0 / NTMzNTQ= / bluray_compat=0 / stitchable=1 / constrained_intra=0 / bframes=3 / b_pyramid=2 / b_adapt=1 / b_bias=0 / direct=3 / weightb=1 / open_gop=0 / weightp=2 / keyint=30 / keyint_min=3 / scenecut=0 / intra_refresh=0 / rc_lookahead=40 / rc=abr / mbtree=1 / bitrate=5000 / ratetol=1.0 / qcomp=0.60 / qpmin=0 / qpmax=69 / qpstep=4 / vbv_maxrate=7500 / vbv_bufsize=11250 / nal_hrd=none / filler=0 / NTMzNTQ=LmsMAP37EqsCpk / ip_ratio=1.40 / aq=1:1.00

  38. Language : English

  39. Default : Yes

  40. Forced : No


  41. Audio

  42. ID : 2

  43. Format : AAC LC

  44. Format/Info : Advanced Audio Codec Low Complexity

  45. Codec ID : A_AAC-2

  46. Duration : 1 h 13 min

  47. Bit rate : 192 kb/s

  48. Channel(s) : 2 channels

  49. Channel layout : L R

  50. Sampling rate : 44.1 kHz

  51. Frame rate : 43.066 FPS (1024 SPF)

  52. Compression mode : Lossy

  53. Stream size : 100 MiB (4%)

  54. Language : Japanese

  55. Default : Yes

  56. Forced : No


  57. Text #1

  58. ID : 3

  59. Format : UTF-8

  60. Codec ID : S_TEXT/UTF8

  61. Codec ID/Info : UTF-8 Plain Text

  62. Duration : 1 h 12 min

  63. Bit rate : 42 b/s

  64. Count of elements : 1047

  65. Stream size : 22.9 KiB (0%)

  66. Title : Chinese Simplified

  67. Language : Chinese

  68. Default : Yes

  69. Forced : No


  70. Text #2

  71. ID : 4

  72. Format : UTF-8

  73. Codec ID : S_TEXT/UTF8

  74. Codec ID/Info : UTF-8 Plain Text

  75. Duration : 1 h 12 min

  76. Bit rate : 42 b/s

  77. Count of elements : 1047

  78. Stream size : 22.9 KiB (0%)

  79. Title : Chinese Traditional

  80. Language : Chinese

  81. Default : No

  82. Forced : No


  83. Text #3

  84. ID : 5

  85. Format : UTF-8

  86. Codec ID : S_TEXT/UTF8

  87. Codec ID/Info : UTF-8 Plain Text

  88. Duration : 1 h 12 min

  89. Bit rate : 65 b/s

  90. Count of elements : 1057

  91. Stream size : 34.9 KiB (0%)

  92. Title : Japanese

  93. Language : Japanese

  94. Default : No

  95. Forced : No



文件下载


除非特别注明,本文『在京都小住[中文字幕].Chokotto.Kyoto.ni.Sundemita.2019.1080p.KKTV.WEB-DL.AAC2.0.x264 2.64GB』来源于互联网机器人自动抓取,非本站原创。 浮游电影网不对本文拥有版权,如有侵犯,请联系邮箱:fuyouu#yandex.com[#换成@]投诉。我们会在15个工作日内删除。 但烦请转载时请标明出处:“本文转载于『浮游电影网』,原文地址:https://www.fuyouu.com/14483.html

评论吧骚年!

发表你的见解   

昵称*

E-mail*(建议输入,以便收到博主回复的提示邮件)

验证码*

您可以使用eMule或eMule Mod(Windows)、aMule(Win、Linux、Mac)等软件下载eD2k链接。。
eMule收藏集(.emulecollection)文件是您选中的所有链接的列表文件。eMule可以直接下载它们。
按住SHIFT键选择可以选中多个选择框。
可用文件名和大小选择器来选择文件。
文件名选择器帮您根据文件名称或后缀来选择文件。不分大小写。
符号使用:
和:空格( )、+
不包含:-
或:|
转义:一对英文引号("");
匹配开头:^
匹配结尾:$
例如:
选中所有名称中包含有“eMule”或“0.49c”字眼,但不包含有“exe”字眼的:emule|0.49c -exe
选中所有名称的开头是“eMule”,结尾是“0.49c”的:^emule 0.49c$
选中所有名称中带有“eMule 0.49c”的(必须是“eMule 0.49c”,中间没有别的字符,不能是“eMule fake 0.49c”),需要转义:"emule 0.49c"
大小选择器帮您根据文件大小选择文件。