当前位置: 首页 >> 动画电影 >> 白雪公主和三只小猪[国语配音/中文字幕].Snow.White.and.the.Three.Pigs.2016.WEB-DL.1080p.H264.AAC 3.38GB >> 正文

白雪公主和三只小猪[国语配音/中文字幕].Snow.White.and.the.Three.Pigs.2016.WEB-DL.1080p.H264.AAC 3.38GB

2021年09月21日 21:51:25     电影发布:来源于网络     电影分类:动画电影     评论(0)    

白雪公主和三只小猪[国语配音/中文字幕].Snow.White.and.the.Three.Pigs.2016.WEB DL.1080p.H264.AAC 3.38GB 动画片 冒险片 动作片 动画电影  第1张

◎译 名 白雪公主和三只小猪 / Snow White and the Three Pigs

◎年 代 2016

◎产 地 中国大陆 / 美国

◎类 别 动作 / 动画 / 冒险

◎语 言 汉语普通话 / 英语

◎上映日期 2016-08-26(中国大陆)

◎IMDb链接 https://www.imdb.com/title//

◎豆瓣评分 2.4/10 (1135人评价)

◎豆瓣链接 https://movie.douban.com/subject/26803231/

◎片 长 80分钟

◎导 演 莎莉 Li Sha (id:1358235)

◎编 剧 董艺丛 Yicong Dong (id:1358236)

阿龙 A Long (id:1358237)

◎演 员 倪虹洁 Hongjie Ni (id:1274649)

任志宏 Zhihong Ren (id:1326851)

谷放冰 Fangbing Gu (id:1338559)

牛朝阳 Chaoyang Niu (id:1319787)

◎标 签 智商无下限 / 没有负分呀 / 浪费时间浪费钱 / 雷人 / 不要在强奸我的眼睛和耳朵了好吗? / 人品无下限 / 山寨 / 没有吐槽的人生多么无趣啊

◎简 介

白雪公主(倪虹洁 配音)拥有美丽的外貌和善良的个性,深受国民们的喜爱。冰雪女王(谷子 配音)将她送往精灵王国,希望她在那里过上快乐的生活。一场意外中,白雪公主不小心跌落了山崖,虽然没有受伤,却因此失去了记忆。

吃宝(马小骥 配音)、萌宝(叶梓萱 配音)和屁宝(胡佳木 配音)是三只可爱的小猪,他们救下了无处可去的白雪公主,热情的邀请她和他们同住,就这样,白雪公主和可爱的三只小猪度过了一段无忧无虑的快乐时光。冰雪女王一直都在寻找白雪公主的踪迹,与此同时,邪恶的狼外婆(马小骥 配音)亦派出了她的爪牙猎人(陈喆 配音)和黑狼(赵铭洲 配音),想要抢在冰雪女王之前抓住白雪公主。

  1. ##### MediaInfo ######

  2. General

  3. Complete name : Snow White and the Three Pigs 2016 WEB-DL 1080p H264 [email protected]

  4. Format : MPEG-4

  5. Format profile : Base Media

  6. Codec ID : isom (isom/avc1)

  7. File size : 3.38 GiB

  8. Duration : 1 h 18 min

  9. Overall bit rate mode : Variable

  10. Overall bit rate : 6 152 kb/s

  11. Encoded date : UTC 2016-09-27 08:16:28

  12. Tagged date : UTC 2016-09-27 08:16:28

  13. Copyright : PPTV-2.4.0.(20,20)[1]

  14. Video

  15. ID : 1

  16. Format : AVC

  17. Format/Info : Advanced Video Codec

  18. Format profile : [email protected]

  19. Format settings : CABAC / 4 Ref Frames

  20. Format settings, CABAC : Yes

  21. Format settings, Reference frames : 4 frames

  22. Codec ID : avc1

  23. Codec ID/Info : Advanced Video Coding

  24. Duration : 1 h 18 min

  25. Bit rate : 6 000 kb/s

  26. Maximum bit rate : 14.3 Mb/s

  27. Width : 1 920 pixels

  28. Height : 1 080 pixels

  29. Display aspect ratio : 16:9

  30. Frame rate mode : Constant

  31. Frame rate : 25.000 FPS

  32. Color space : YUV

  33. Chroma subsampling : 4:2:0

  34. Bit depth : 8 bits

  35. Scan type : Progressive

  36. Bits/(Pixel*Frame) : 0.116

  37. Stream size : 3.27 GiB (97%)

  38. Title : VideoByEZMediaEditor

  39. Writing library : x264()-core 129 - H.264/MPEG-4

  40. Encoding settings : cabac=1 / ref=4 / deblock=1:0:0 / analyse=0x3:0x133 / me=umh / subme=9 / psy=1 / psy_rd=0.00:0.00 / mixed_ref=1 / me_range=24 / chroma_me=1 / trellis=2 / 8x8dct=1 / cqm=0 / deadzone=21,11 / fast_pskip=0 / chroma_qp_offset=0 / threads=16 / lookahead_threads=2 / sliced_threads=0 / nr=0 / decimate=1 / interlaced=0 / NTMzNTQ= / bluray_compat=0 / constrained_intra=0 / bframes=4 / b_pyramid=2 / b_adapt=0 / b_bias=0 / direct=3 / weightb=1 / open_gop=0 / weightp=2 / keyint=250 / keyint_min=25 / NTMzNTQ=uuDQuD2mJt9fsCf / scenecut=40 / intra_refresh=0 / rc_lookahead=60 / rc=abr / mbtree=1 / bitrate=6000 / ratetol=1.0 / qcomp=0.60 / qpmin=0 / qpmax=69 / qpstep=4 / vbv_maxrate=12000 / vbv_bufsize=6000 / nal_hrd=none / NTMzNTQ=LmsMAP37EqsCpk / ip_ratio=1.40 / aq=1:1.00

  41. Encoded date : UTC 2016-09-27 08:16:28

  42. Tagged date : UTC 2016-09-27 08:17:45

  43. Codec configuration box : avcC

  44. Audio

  45. ID : 2

  46. Format : AAC LC

  47. Format/Info : Advanced Audio Codec Low Complexity

  48. Codec ID : mp4a-40-2

  49. Duration : 1 h 18 min

  50. Bit rate mode : Variable

  51. Bit rate : 192 kb/s

  52. Maximum bit rate : 198 kb/s

  53. Channel(s) : 2 channels

  54. Channel layout : L R

  55. Sampling rate : 44.1 kHz

  56. Frame rate : 43.066 FPS (1024 SPF)

  57. Compression mode : Lossy

  58. Stream size : 107 MiB (3%)

  59. Title : Audio1-

  60. Encoded date : UTC 2016-09-27 08:17:42

  61. Tagged date : UTC 2016-09-27 08:17:45


文件下载


除非特别注明,本文『白雪公主和三只小猪[国语配音/中文字幕].Snow.White.and.the.Three.Pigs.2016.WEB-DL.1080p.H264.AAC 3.38GB』来源于互联网机器人自动抓取,非本站原创。 浮游电影网不对本文拥有版权,如有侵犯,请联系邮箱:fuyouu#yandex.com[#换成@]投诉。我们会在15个工作日内删除。 但烦请转载时请标明出处:“本文转载于『浮游电影网』,原文地址:https://www.fuyouu.com/14482.html

评论吧骚年!

发表你的见解   

昵称*

E-mail*(建议输入,以便收到博主回复的提示邮件)

验证码*

您可以使用eMule或eMule Mod(Windows)、aMule(Win、Linux、Mac)等软件下载eD2k链接。。
eMule收藏集(.emulecollection)文件是您选中的所有链接的列表文件。eMule可以直接下载它们。
按住SHIFT键选择可以选中多个选择框。
可用文件名和大小选择器来选择文件。
文件名选择器帮您根据文件名称或后缀来选择文件。不分大小写。
符号使用:
和:空格( )、+
不包含:-
或:|
转义:一对英文引号("");
匹配开头:^
匹配结尾:$
例如:
选中所有名称中包含有“eMule”或“0.49c”字眼,但不包含有“exe”字眼的:emule|0.49c -exe
选中所有名称的开头是“eMule”,结尾是“0.49c”的:^emule 0.49c$
选中所有名称中带有“eMule 0.49c”的(必须是“eMule 0.49c”,中间没有别的字符,不能是“eMule fake 0.49c”),需要转义:"emule 0.49c"
大小选择器帮您根据文件大小选择文件。