当前位置: 首页 >> 欧美电影 >> 七个尖角阁的房子[中文字幕].The.House.of.Seven.Gables.1940.1080p.BluRay.x265.10bit.DTS 6.60GB >> 正文

七个尖角阁的房子[中文字幕].The.House.of.Seven.Gables.1940.1080p.BluRay.x265.10bit.DTS 6.60GB

2021年09月21日 21:49:19     电影发布:来源于网络     电影分类:欧美电影     评论(0)    

七个尖角阁的房子[中文字幕].The.House.of.Seven.Gables.1940.1080p.BluRay.x265.10bit.DTS 6.60GB 惊悚片 剧情片 欧美电影  第1张

◎译 名 七个尖角阁的房子

◎片 名 The House of the Seven Gables

◎年 代 1940

◎产 地 美国

◎类 别 剧情 / 惊悚

◎语 言 英语

◎上映日期 1940-04-12

◎IMDb链接 https://www.imdb.com/title/tt0032610/

◎豆瓣链接 https://movie.douban.com/subject/3006258/

◎片 长 89 分钟

◎导 演 乔·梅伊 Joe May (id:1042179)

◎编 剧 莱斯特·科尔 Lester Cole (id:1069331)

哈罗德·格林 Harold Greene (id:1007270)

纳撒尼尔·霍桑 Nathaniel Hawthorne (id:1010296)

Lester Cole Lester Cole (id:1074045)

◎演 员 文森特·普莱斯 Vincent Price (id:1019061)

查尔斯·特罗布里奇 Charles Trowbridge (id:1159276)

Jane Loofbourrow Jane Loofbourrow (id:1119548)

Michael Mark Michael Mark (id:1122839)

拉斯·鲍威尔 Russ Powell (id:1126593)

Edgar Norton Edgar Norton (id:1133205)

阿兰·纳皮尔 Alan Napier (id:1129377)

Lon Poff Lon Poff (id:1129807)

Harry Woods Harry Woods (id:1165511)

Allen D. Sewall Allen D. Sewall (id:1146994)

Claire Whitney Claire Whitney (id:1165509)

哈里·斯塔布斯 Harry Stubbs (id:1151658)

Hugh Sothern Hugh Sothern (id:1154681)

Nelson McDowell Nelson McDowell (id:1118758)

米拉·麦金尼 Mira McKinney (id:1117478)

塞西尔·凯拉威 Cecil Kellaway (id:1113938)

Gilbert Emery Gilbert Emery (id:1019705)

迈尔斯·曼德 Miles Mander (id:1048428)

玛格丽特·琳赛 Margaret Lindsay (id:1050356)

Robert Dudley Robert Dudley (id:1051400)

默多克·麦夸里 Murdock MacQuarrie (id:1054381)

乔治·桑德斯 George Sanders (id:1056113)

Kernan Cripps Kernan Cripps (id:1069030)

哈利·考丁 Harry Cording (id:1070478)

迪克·福伦 Dick Foran (id:1079295)

Margaret Fealy Margaret Fealy (id:1079563)

Martin Faust Martin Faust (id:1083017)

Sibyl Harris Sibyl Harris (id:1095459)

南·格雷 Nan Grey (id:1102284)

Ellis Irving Ellis Irving (id:1110186)

Colin Kenny Colin Kenny (id:1110221)

Ann Kunde Ann Kunde (id:1110467)

Burt Kelly Burt Kelly (id:1030814)

弗兰克·斯金纳 Frank Skinner (id:1157480)

米尔顿·R·克拉斯纳 Milton R. Krasner (id:1008369)

杰克·奥特森 Jack Otterson (id:1054379)

罗素·A·盖斯曼 Russell A. Gausman (id:1093495)

维拉·韦斯特 Vera West (id:1010530)

杰克 P. 皮尔斯 Jack P. Pierce (id:1128770)

菲尔·卡尔森 Phil Karlson (id:1013706)

◎标 签 美国电影 / 恐怖惊悚 / 名著改编 / 美国 / 惊悚 / 剧情 / 英美文学选读 / 美國

◎获奖情况 (共1项)

第13届奥斯卡金像奖 (1941)

最佳原创配乐(提名)

└──弗兰克·斯金纳 (id:1157480)

  1. ##### MediaInfo ######

  2. General

  3. Unique ID : 170101151189202570984641759480032874123 (0x7FF84A41B333C12D15486B2BF9394E8B)

  4. Complete name : T[email protected]BBQDDQ.COM.mkv

  5. Format : Matroska

  6. Format version : Version 4

  7. File size : 6.60 GiB

  8. Duration : 1 h 28 min

  9. Overall bit rate : 10.7 Mb/s

  10. Movie name : The House of Seven Gables

  11. Encoded date : UTC 2021-09-20 08:29:49

  12. Writing application : mkvmerge v56.1.0 ('My Friend') 64-bit

  13. Writing library : libebml v1.4.2 + libmatroska v1.6.4

  14. Cover : Yes

  15. Attachments : cover.jpg / cover.jpg / cover.jpg / cover.jpg


  16. Video

  17. ID : 1

  18. Format : HEVC

  19. Format/Info : High Efficiency Video Coding

  20. Format profile : Main [email protected]@Main

  21. Codec ID : V_MPEGH/ISO/HEVC

  22. Duration : 1 h 28 min

  23. Bit rate : 9 068 kb/s

  24. Width : 1 460 pixels

  25. Height : 1 080 pixels

  26. Display aspect ratio : 4:3

  27. Frame rate mode : Constant

  28. Frame rate : 23.976 (24000/1001/53354) FPS

  29. Color space : YUV

  30. Chroma subsampling : 4:2:0

  31. Bit depth : 10 bits

  32. Bits/(Pixel*Frame) : 0.240

  33. Stream size : 5.61 GiB (85%)

  34. Writing library : x265 3.5+2-g2b25c9ba0+45:[Windows][GCC 10.2.0][64 bit] Yuuki 10bit+8bit+12bit

  35. Encoding settings : rc=crf / crf=21.0000 / qcomp=0.60 / qpstep=4 / stats-write=0 / stats-read=0 / no-lossless / no-cu-lossless / aq-mode=3 / aq-strength=0.90 / cbqpoffs=0 / crqpoffs=0 / ipratio=1.40 / pbratio=1.30 / psy-rd=2.00 / psy-rdoq=0.00 / deblock=0:0 / ref=6 / limit-refs=1 / no-limit-modes / bframes=8 / b-adapt=2 / bframe-bias=0 / b-pyramid / b-intra / weightp / weightb / min-keyint=24 / max-keyint=240 / rc-lookahead=24 / gop-lookahead=0 / NTMzNTQ=uuDQuD2mJt9fsCf / scenecut=40 / hist-scenecut=0 / radl=0 / max-cu-size=64 / min-cu-size=8 / me=3 / subme=7 / merange=48 / rdoq-level=0 / rd=4 / rdpenalty=0 / dynamic-rd=0.00 / no-rd-refine / ----- / cutree / sao / no-rect / no-amp / no-open-gop / wpp / no-pmode / no-pme / no-psnr / no-ssim / nr-intra=0 / nr-inter=0 / no-constrained-intra / no-strong-intra-smoothing / max-tu-size=32 / tu-inter-depth=1 / tu-intra-depth=1 / limit-tu=0 / qg-size=32 / qpmax=69 / qpmin=0 / ----- / cpuid=533541111039 / frame-threads=4 / numa-pools=+ / log-level=2 / input-csp=1 / input-res=1460x1080 / interlace=0 / level-idc=0 / high-tier=1 / uhd-bd=0 / no-allow-non-conformance / no-repeat-headers / aud / no-hrd / info / hash=0 / no-temporal-layers / lookahead-slices=0 / no-splice / no-intra-refresh / no-ssim-rd / signhide / no-tskip / max-merge=3 / temporal-mvp / no-frame-dup / no-hme / no-analyze-src-pics / no-sao-non-deblock / selective-sao=4 / early-skip / rskip / no-fast-intra / no-tskip-fast / no-splitrd-skip / zone-count=0 / no-strict-cbr / no-rc-grain / no-const-vbv / sar=0 / overscan=0 / videoformat=5 / range=0 / colorprim=2 / transfer=2 / colormatrix=2 / chromaloc=0 / display-window=0 / cll=0,0 / min-luma=0 / max-luma=1023 / log2-max-poc-lsb=8 / vui-timing-info / vui-hrd-info / slices=1 / no-opt-qp-pps / no-opt-ref-list-length-pps / no-multi-pass-opt-rps / scenecut-bias=0.05 / hist-threshold=0.03 / no-opt-cu-delta-qp / no-aq-motion / no-hdr10 / no-hdr10-opt / no-dhdr10-opt / no-idr-recovery-sei / analysis-reuse-level=0 / analysis-save-reuse-level=0 / analysis-load-reuse-level=0 / scale-factor=0 / refine-intra=0 / refine-inter=0 / refine-mv=1 / refine-ctu-distortion=0 / no-limit-sao / ctu-info=0 / no-lowpass-dct / refine-analysis-type=0 / copy-pic=1 / max-ausize-factor=1.0 / no-dynamic-refine / no-single-sei / no-hevc-aq / no-svt / no-field / qp-adaptation-range=1.00 / scenecut-aware-qp=0conformance-window-offsets / right=0 / bottom=0 / NTMzNTQ= / decoder-max-rate=0 / no-vbv-live-multi-pass

  36. Language : English

  37. Default : Yes

  38. Forced : No


  39. Audio

  40. ID : 2

  41. Format : DTS

  42. Format/Info : Digital Theater Systems

  43. Codec ID : A_DTS

  44. Duration : 1 h 28 min

  45. Bit rate mode : Constant

  46. Bit rate : 1 509 kb/s

  47. Channel(s) : 2 channels

  48. Channel layout : L R

  49. Sampling rate : 48.0 kHz

  50. Frame rate : 93.750 FPS (512 SPF)

  51. Bit depth : 16 bits

  52. Compression mode : Lossy

  53. Stream size : 955 MiB (14%)

  54. Language : English

  55. Default : Yes

  56. Forced : No


  57. Text #1

  58. ID : 3

  59. Format : PGS

  60. Muxing mode : zlib

  61. Codec ID : S_HDMV/PGS

  62. Codec ID/Info : Picture based subtitle format used on BDs/HD-DVDs

  63. Duration : 1 h 27 min

  64. Bit rate : 55.7 kb/s

  65. Count of elements : 2034

  66. Stream size : 34.9 MiB (1%)

  67. Title : chs&eng

  68. Language : Chinese

  69. Default : Yes

  70. Forced : No


  71. Text #2

  72. ID : 4

  73. Format : PGS

  74. Muxing mode : zlib

  75. Codec ID : S_HDMV/PGS

  76. Codec ID/Info : Picture based subtitle format used on BDs/HD-DVDs

  77. Duration : 1 h 27 min

  78. Bit rate : 56.1 kb/s

  79. Count of elements : 2034

  80. Stream size : 35.1 MiB (1%)

  81. Title : cht&eng

  82. Language : Chinese

  83. Default : No

  84. Forced : No


  85. Text #3

  86. ID : 5

  87. Format : PGS

  88. Muxing mode : zlib

  89. Codec ID : S_HDMV/PGS

  90. Codec ID/Info : Picture based subtitle format used on BDs/HD-DVDs

  91. Duration : 1 h 27 min

  92. Bit rate : 32.8 kb/s

  93. Count of elements : 2034

  94. Stream size : 20.5 MiB (0%)

  95. Title : chs

  96. Language : Chinese

  97. Default : No

  98. Forced : No


  99. Text #4

  100. ID : 6

  101. Format : PGS

  102. Muxing mode : zlib

  103. Codec ID : S_HDMV/PGS

  104. Codec ID/Info : Picture based subtitle format used on BDs/HD-DVDs

  105. Duration : 1 h 27 min

  106. Bit rate : 33.2 kb/s

  107. Count of elements : 2034

  108. Stream size : 20.8 MiB (0%)

  109. Title : cht

  110. Language : Chinese

  111. Default : No

  112. Forced : No


  113. Text #5

  114. ID : 7

  115. Format : PGS

  116. Muxing mode : zlib

  117. Codec ID : S_HDMV/PGS

  118. Codec ID/Info : Picture based subtitle format used on BDs/HD-DVDs

  119. Duration : 1 h 24 min

  120. Bit rate : 36.9 kb/s

  121. Count of elements : 1336

  122. Stream size : 22.3 MiB (0%)

  123. Title : eng

  124. Language : English

  125. Default : No

  126. Forced : No


  127. Menu

  128. 00:00:00.000 : Chapter 01

  129. 00:11:20.221 : Chapter 02

  130. 00:17:30.299 : Chapter 03

  131. 00:24:58.246 : Chapter 04

  132. 00:37:57.775 : Chapter 05

  133. 00:51:32.214 : Chapter 06

  134. 01:01:45.910 : Chapter 07

  135. 01:15:12.382 : Chapter 08


文件下载


除非特别注明,本文『七个尖角阁的房子[中文字幕].The.House.of.Seven.Gables.1940.1080p.BluRay.x265.10bit.DTS 6.60GB』来源于互联网机器人自动抓取,非本站原创。 浮游电影网不对本文拥有版权,如有侵犯,请联系邮箱:fuyouu#yandex.com[#换成@]投诉。我们会在15个工作日内删除。 但烦请转载时请标明出处:“本文转载于『浮游电影网』,原文地址:https://www.fuyouu.com/14481.html

评论吧骚年!

发表你的见解   

昵称*

E-mail*(建议输入,以便收到博主回复的提示邮件)

验证码*

您可以使用eMule或eMule Mod(Windows)、aMule(Win、Linux、Mac)等软件下载eD2k链接。。
eMule收藏集(.emulecollection)文件是您选中的所有链接的列表文件。eMule可以直接下载它们。
按住SHIFT键选择可以选中多个选择框。
可用文件名和大小选择器来选择文件。
文件名选择器帮您根据文件名称或后缀来选择文件。不分大小写。
符号使用:
和:空格( )、+
不包含:-
或:|
转义:一对英文引号("");
匹配开头:^
匹配结尾:$
例如:
选中所有名称中包含有“eMule”或“0.49c”字眼,但不包含有“exe”字眼的:emule|0.49c -exe
选中所有名称的开头是“eMule”,结尾是“0.49c”的:^emule 0.49c$
选中所有名称中带有“eMule 0.49c”的(必须是“eMule 0.49c”,中间没有别的字符,不能是“eMule fake 0.49c”),需要转义:"emule 0.49c"
大小选择器帮您根据文件大小选择文件。