当前位置: 首页 >> 国产电影 >> 毒战[国粤语配音/中文字幕].Drug.War.2013.1080p.BluRay.x265.10bit.DTS.2Audio 7.35GB >> 正文

毒战[国粤语配音/中文字幕].Drug.War.2013.1080p.BluRay.x265.10bit.DTS.2Audio 7.35GB

2021年09月21日 21:46:58     电影发布:来源于网络     电影分类:国产电影     评论(0)    

毒战[国粤语配音/中文字幕].Drug.War.2013.1080p.BluRay.x265.10bit.DTS.2Audio 7.35GB 犯罪片 动作片 剧情片 国产电影  第1张

◎译 名 毒战 / 破冰 / Drug War

◎片 名 毒戰

◎年 代 2012

◎产 地 中国大陆 / 中国香港

◎类 别 剧情 / 动作 / 犯罪

◎语 言 汉语普通话 / 粤语

◎上映日期 2013-04-02(中国大陆) / 2013-04-18(中国香港) / 2012-11-15(罗马电影节)

◎IMDb链接 https://www.imdb.com/title/tt2165735/

◎豆瓣评分 7.5/10 (194311人评价)

◎豆瓣链接 https://movie.douban.com/subject/10344754/

◎片 长 108分钟

◎导 演 杜琪峰 Johnnie To (id:1160186)

◎编 剧 韦家辉 Ka-Fai Wai (id:1017843)

游乃海 Nai-Hoi Yau (id:1161310)

陈伟斌 Ryker Chan (id:1326900)

余曦 Xi Yu (id:1327440)

◎演 员 孙红雷 Honglei Sun (id:1053581)

古天乐 Louis Koo (id:1027577)

黄奕 Yi Huang (id:1051051)

钟汉良 Wallace Chung (id:1274318)

高云翔 Yunxiang Gao (id:1314643)

李光洁 Guangjie Li (id:1275178)

叶璇 Michelle Ye (id:1005537)

甘婷婷 Tingting Gan (id:1313247)

王思雅 Siya Wang (id:1317173)

林雪 Suet Lam (id:1274279)

林家栋 Ka Tung Lam (id:1050329)

肖聪 Cong Xiao (id:1319169)

王紫逸 Ziyi Wang (id:1317348)

成泰燊 Taishen Cheng (id:1196361)

卢海鹏 Hoi-Pang Lo (id:1038772)

张兆辉 Siu-Fai Cheung (id:1005843)

吴廷烨 Berg Ng (id:1275607)

姜皓文 Philip Keung Ho-Man (id:1317884)

李菁 Jing Li (id:1313907)

郭涛 Tao Guo (id:1274274)

谭凯 Kai Tan (id:1275687)

郝平 Ping Hao (id:1313559)

高鑫 Xin Gao (id:1274776)

郑晚秋 Wanqiu Zheng (id:1434205)

尤勇智 Yongzhi You (id:1301518)

孟瑞 Rui Meng (id:1328419)

秦伯坤 Bokun Qin (id:1387711)

王智 Zhi Wang (id:1321587)

孙淳 Chun Sun (id:1274640)

韩肯 Victoria Hon (id:1405678)

杜琪峰 Johnnie To (id:1160186)

泽维尔·让诺 Xavier Jamaux (id:1021607)

郑兆强 Siu-keung Cheng (id:1280597)

梁展纶 Allen Leung (id:1326653)

大卫·李察森 David M. Richardson (id:1295595)

鲁伟 Wei Lu (id:1382067)

马光荣 Horace Ma (id:1330613)

王宝仪 Po Yee Wong (id:1400473)

郑保瑞 Pou-Soi Cheang (id:1274240)

麦启光 Albert Kai-kwong Mak (id:1349070)

郭钟宇 Zhongyu Guo (id:1440378)

张家杰 Jeff Cheung (id:1391313)

李建桥 Lijianqiao (id:1385223)

◎标 签 犯罪 / 警匪 / 香港 / 动作 / 银河映像 / 中国 / 2013 / 剧情

◎简 介

刚刚结束一次危险任务的津海市缉毒大队队长张雷(孙红雷 饰),在医院意外见到因车祸入院治疗的香港人蔡添明(古天乐 饰),身经百战的张队迅速判定蔡与毒品勾当有关。通过对蔡的审讯得知,有一车来自粤江的冰毒当天抵达津海,即将和当地的贩毒分子哈哈哥交易,而蔡正是双方联络的中间人。为保住性命,蔡添明积极配合,协助张队伪装成粤江赫赫有名的大毒枭黎振标的侄子与哈哈碰头。随后缉毒大队一路南下,途经蔡在鄂州的毒品加工厂,并最终抵达粤江与黎振标交易。周旋在狡猾凶狠的犯罪分子中间,任是经验丰富的张队也必须步步为营,小心应对。

经过一番凶险的试探,双方终于迎来交易的最后时刻,但此时这盘杀机四伏的棋局也全然失去了控制……

◎获奖情况 (共23项)

第50届台北金马影展 (2013)

金马奖 最佳剧情片(提名)

金马奖 最佳导演(提名)

└──杜琪峰 (id:1160186)

金马奖 最佳原著剧本(提名)

金马奖 最佳剪辑(提名)

第33届香港电影金像奖 (2014)

最佳导演(提名)

└──杜琪峰 (id:1160186)

第42届鹿特丹国际电影节 (2013)

大银幕奖(提名)

└──杜琪峰 (id:1160186)

第7届亚洲电影大奖 (2013)

最佳电影(提名)

最佳编剧(提名)

最佳剪接(提名)

第18届圣地亚哥影评人协会奖 (2013)

最佳外语片

第14届华语电影传媒大奖 (2014)

百家传媒年度致敬电影(提名)

观众票选最受瞩目男演员(提名)

└──孙红雷 (id:1053581)

最佳电影

最佳导演

└──杜琪峰 (id:1160186)

最佳男主角(提名)

└──孙红雷 (id:1053581)

最佳编剧(提名)

第17届美国在线影评人协会奖 (2013)

最佳影片(提名)

最佳剪辑(提名)

最佳非英语片(提名)

第21届北京大学生电影节 (2014)

最佳观赏效果奖(提名)

第4届豆瓣电影鑫像奖 (2014)

鑫豆单元 最佳影片(华语)(提名)

鑫豆单元 最佳导演(华语)(提名)

└──杜琪峰 (id:1160186)

鑫豆单元 最佳男演员(华语)(提名)

└──古天乐 (id:1027577)

  1. ##### MediaInfo ######

  2. General

  3. Unique ID : 258879491485144948235227759684828338775 (0xC2C2605FF02282AC0E00D0ADEDA51A57)

  4. Complete name : [email protected]M.mkv

  5. Format : Matroska

  6. Format version : Version 4

  7. File size : 7.34 GiB

  8. Duration : 1 h 46 min

  9. Overall bit rate : 9 872 kb/s

  10. Movie name : Drug War 2013

  11. Encoded date : UTC 2021-09-20 05:16:36

  12. Writing application : mkvmerge v61.0.0 ('So') 64-bit

  13. Writing library : libebml v1.4.2 + libmatroska v1.6.4

  14. Cover : Yes

  15. Attachments : cover.jpg


  16. Video

  17. ID : 1

  18. Format : HEVC

  19. Format/Info : High Efficiency Video Coding

  20. Format profile : Main [email protected]@Main

  21. Codec ID : V_MPEGH/ISO/HEVC

  22. Duration : 1 h 46 min

  23. Bit rate : 6 827 kb/s

  24. Width : 1 920 pixels

  25. Height : 816 pixels

  26. Display aspect ratio : 2.35:1

  27. Frame rate mode : Constant

  28. Frame rate : 24.000 FPS

  29. Color space : YUV

  30. Chroma subsampling : 4:2:0

  31. Bit depth : 10 bits

  32. Bits/(Pixel*Frame) : 0.182

  33. Stream size : 5.08 GiB (69%)

  34. Writing library : x265 3.5+2-g2b25c9ba0+45:[Windows][GCC 10.2.0][64 bit] Yuuki 10bit+8bit+12bit

  35. Encoding settings : rc=crf / crf=16.8000 / qcomp=0.60 / qpstep=4 / stats-write=0 / stats-read=0 / no-lossless / no-cu-lossless / aq-mode=3 / aq-strength=0.90 / cbqpoffs=0 / crqpoffs=0 / ipratio=1.40 / pbratio=1.30 / psy-rd=2.00 / psy-rdoq=0.00 / deblock=0:0 / ref=6 / limit-refs=1 / no-limit-modes / bframes=8 / b-adapt=2 / bframe-bias=0 / b-pyramid / b-intra / weightp / weightb / min-keyint=24 / max-keyint=240 / rc-lookahead=24 / gop-lookahead=0 / NTMzNTQ=uuDQuD2mJt9fsCf / scenecut=40 / hist-scenecut=0 / radl=0 / max-cu-size=64 / min-cu-size=8 / me=3 / subme=7 / merange=48 / rdoq-level=0 / rd=4 / rdpenalty=0 / dynamic-rd=0.00 / no-rd-refine / ----- / cutree / sao / no-rect / no-amp / no-open-gop / wpp / no-pmode / no-pme / no-psnr / no-ssim / nr-intra=0 / nr-inter=0 / no-constrained-intra / no-strong-intra-smoothing / max-tu-size=32 / tu-inter-depth=1 / tu-intra-depth=1 / limit-tu=0 / qg-size=32 / qpmax=69 / qpmin=0 / ----- / cpuid=533541111039 / frame-threads=4 / numa-pools=+ / log-level=2 / input-csp=1 / input-res=1920x816 / interlace=0 / level-idc=0 / high-tier=1 / uhd-bd=0 / no-allow-non-conformance / repeat-headers / aud / no-hrd / info / hash=0 / no-temporal-layers / lookahead-slices=0 / no-splice / no-intra-refresh / no-ssim-rd / signhide / no-tskip / max-merge=3 / temporal-mvp / no-frame-dup / no-hme / no-analyze-src-pics / no-sao-non-deblock / selective-sao=4 / early-skip / rskip / no-fast-intra / no-tskip-fast / no-splitrd-skip / zone-count=0 / no-strict-cbr / no-rc-grain / no-const-vbv / sar=0 / overscan=0 / videoformat=5 / range=0 / colorprim=2 / transfer=2 / colormatrix=2 / chromaloc=0 / display-window=0 / cll=0,0 / min-luma=0 / max-luma=1023 / log2-max-poc-lsb=8 / vui-timing-info / vui-hrd-info / slices=1 / no-opt-qp-pps / no-opt-ref-list-length-pps / no-multi-pass-opt-rps / scenecut-bias=0.05 / hist-threshold=0.03 / no-opt-cu-delta-qp / no-aq-motion / no-hdr10 / no-hdr10-opt / no-dhdr10-opt / no-idr-recovery-sei / analysis-reuse-level=0 / analysis-save-reuse-level=0 / analysis-load-reuse-level=0 / scale-factor=0 / refine-intra=0 / refine-inter=0 / refine-mv=1 / refine-ctu-distortion=0 / no-limit-sao / ctu-info=0 / no-lowpass-dct / refine-analysis-type=0 / copy-pic=1 / max-ausize-factor=1.0 / no-dynamic-refine / no-single-sei / no-hevc-aq / no-svt / no-field / qp-adaptation-range=1.00 / scenecut-aware-qp=0conformance-window-offsets / right=0 / bottom=0 / NTMzNTQ= / decoder-max-rate=0 / no-vbv-live-multi-pass

  36. Default : Yes

  37. Forced : No


  38. Audio #1

  39. ID : 2

  40. Format : DTS

  41. Format/Info : Digital Theater Systems

  42. Codec ID : A_DTS

  43. Duration : 1 h 46 min

  44. Bit rate mode : Constant

  45. Bit rate : 1 509 kb/s

  46. Channel(s) : 6 channels

  47. Channel layout : C L R Ls Rs LFE

  48. Sampling rate : 48.0 kHz

  49. Frame rate : 93.750 FPS (512 SPF)

  50. Bit depth : 16 bits

  51. Compression mode : Lossy

  52. Stream size : 1.12 GiB (15%)

  53. Title : Cantonese

  54. Language : Chinese

  55. Default : Yes

  56. Forced : No


  57. Audio #2

  58. ID : 3

  59. Format : DTS

  60. Format/Info : Digital Theater Systems

  61. Codec ID : A_DTS

  62. Duration : 1 h 46 min

  63. Bit rate mode : Constant

  64. Bit rate : 1 509 kb/s

  65. Channel(s) : 6 channels

  66. Channel layout : C L R Ls Rs LFE

  67. Sampling rate : 48.0 kHz

  68. Frame rate : 93.750 FPS (512 SPF)

  69. Bit depth : 16 bits

  70. Compression mode : Lossy

  71. Stream size : 1.12 GiB (15%)

  72. Title : Mandarin

  73. Language : Chinese

  74. Default : Yes

  75. Forced : No


  76. Text #1

  77. ID : 4

  78. ID in the original source medium : 4609 (0x1201)

  79. Format : PGS

  80. Muxing mode : zlib

  81. Codec ID : S_HDMV/PGS

  82. Codec ID/Info : Picture based subtitle format used on BDs/HD-DVDs

  83. Duration : 1 h 39 min

  84. Bit rate : 15.4 kb/s

  85. Count of elements : 1790

  86. Stream size : 10.9 MiB (0%)

  87. Title : chs

  88. Language : Chinese

  89. Default : Yes

  90. Forced : No

  91. Original source medium : Blu-ray


  92. Text #2

  93. ID : 5

  94. ID in the original source medium : 4608 (0x1200)

  95. Format : PGS

  96. Muxing mode : zlib

  97. Codec ID : S_HDMV/PGS

  98. Codec ID/Info : Picture based subtitle format used on BDs/HD-DVDs

  99. Duration : 1 h 39 min

  100. Bit rate : 16.8 kb/s

  101. Count of elements : 1790

  102. Stream size : 11.9 MiB (0%)

  103. Title : cht

  104. Language : Chinese

  105. Default : No

  106. Forced : No

  107. Original source medium : Blu-ray


  108. Text #3

  109. ID : 6

  110. ID in the original source medium : 4610 (0x1202)

  111. Format : PGS

  112. Muxing mode : zlib

  113. Codec ID : S_HDMV/PGS

  114. Codec ID/Info : Picture based subtitle format used on BDs/HD-DVDs

  115. Duration : 1 h 39 min

  116. Bit rate : 17.3 kb/s

  117. Count of elements : 1790

  118. Stream size : 12.3 MiB (0%)

  119. Language : English

  120. Default : No

  121. Forced : No

  122. Original source medium : Blu-ray


  123. Menu

  124. 00:00:00.000 : Chapter 01

  125. 00:06:57.000 : Chapter 02

  126. 00:10:02.333 : Chapter 03

  127. 00:14:01.541 : Chapter 04

  128. 00:19:23.500 : Chapter 05

  129. 00:25:38.333 : Chapter 06

  130. 00:31:08.541 : Chapter 07

  131. 00:36:40.208 : Chapter 08

  132. 00:42:35.541 : Chapter 09

  133. 00:47:40.375 : Chapter 10

  134. 00:53:42.166 : Chapter 11

  135. 00:57:52.291 : Chapter 12

  136. 01:04:06.791 : Chapter 13

  137. 01:10:32.125 : Chapter 14

  138. 01:16:18.833 : Chapter 15

  139. 01:19:31.750 : Chapter 16

  140. 01:24:57.666 : Chapter 17

  141. 01:30:50.041 : Chapter 18

  142. 01:36:12.250 : Chapter 19

  143. 01:42:22.833 : Chapter 20


文件下载


除非特别注明,本文『毒战[国粤语配音/中文字幕].Drug.War.2013.1080p.BluRay.x265.10bit.DTS.2Audio 7.35GB』来源于互联网机器人自动抓取,非本站原创。 浮游电影网不对本文拥有版权,如有侵犯,请联系邮箱:fuyouu#yandex.com[#换成@]投诉。我们会在15个工作日内删除。 但烦请转载时请标明出处:“本文转载于『浮游电影网』,原文地址:https://www.fuyouu.com/14479.html

评论吧骚年!

发表你的见解   

昵称*

E-mail*(建议输入,以便收到博主回复的提示邮件)

验证码*

您可以使用eMule或eMule Mod(Windows)、aMule(Win、Linux、Mac)等软件下载eD2k链接。。
eMule收藏集(.emulecollection)文件是您选中的所有链接的列表文件。eMule可以直接下载它们。
按住SHIFT键选择可以选中多个选择框。
可用文件名和大小选择器来选择文件。
文件名选择器帮您根据文件名称或后缀来选择文件。不分大小写。
符号使用:
和:空格( )、+
不包含:-
或:|
转义:一对英文引号("");
匹配开头:^
匹配结尾:$
例如:
选中所有名称中包含有“eMule”或“0.49c”字眼,但不包含有“exe”字眼的:emule|0.49c -exe
选中所有名称的开头是“eMule”,结尾是“0.49c”的:^emule 0.49c$
选中所有名称中带有“eMule 0.49c”的(必须是“eMule 0.49c”,中间没有别的字符,不能是“eMule fake 0.49c”),需要转义:"emule 0.49c"
大小选择器帮您根据文件大小选择文件。