当前位置: 首页 >> 海外电影 >> 拳霸2[中文字幕].Ong.bak.2.2008.1080p.WEB-DL.H264.AAC 1.36GB >> 正文

拳霸2[中文字幕].Ong.bak.2.2008.1080p.WEB-DL.H264.AAC 1.36GB

2021年09月21日 21:46:13     电影发布:来源于网络     电影分类:海外电影     评论(0)    

拳霸2[中文字幕].Ong.bak.2.2008.1080p.WEB DL.H264.AAC 1.36GB  海外电影  第1张

◎译 名 拳霸2 / 盗佛线2

◎片 名 Ong bak 2

◎年 代 2008

◎产 地 泰国

◎类 别 动作

◎语 言 泰语

◎上映日期 2008-12-04

◎IMDb链接 https://www.imdb.com/title/tt0785035/

◎豆瓣评分 6.3/10 (9232人评价)

◎豆瓣链接 https://movie.douban.com/subject/1951175/

◎片 长 98 分钟

◎导 演 托尼·贾 Tony Jaa (id:1004643)

◎编 剧 托尼·贾 Tony Jaa (id:1004643)

◎演 员 托尼·贾 Tony Jaa (id:1004643)

Jaja Primrata Dejudom Jaja Primrata Dejudom (id:1360875)

桑提苏克·普罗姆斯利 Santisuk Promsiri (id:1349063)

索拉朋·切特里 Sorapong Chatree (id:1347609)

Sarunyu Wongkrachang Sarunyu Wongkrachang (id:1344269)

金星 Xing Jin (id:1322341)

尼鲁·西里詹亚 Nirut Sirichanya (id:1303096)

派特察泰·王卡姆劳 Petchtai Wongkamlao (id:1302193)

Supakorn Kitsuwon Supakorn Kitsuwon (id:1288658)

丹楚朋 Dan Chupong (id:1000741)

托尼·贾 Tony Jaa (id:1004643)

Nattawut Kittikhun Nattawut Kittikhun (id:1288663)

Sarawoot Kumsorn Sarawoot Kumsorn (id:1374653)

◎标 签 动作 / 泰国 / TonyJaa / 泰国电影 / 泰拳 / 暴力 / 拳霸2 / 拳霸

◎简 介

距今五、六百年前的泰国,时局动荡,阴阳逆反。邪恶阴险的军官Rajasena发动叛乱,夺取政权,为此展开大规模的血腥屠杀。少年泰恩出身于一个正直的武将家庭,他的父母双亲皆被叛军杀害。泰恩侥幸逃脱,然而才出龙潭,又入虎穴,他被迫与凶猛的鳄鱼同处一池。泰恩面对鳄鱼时的果敢引起夫毕克匪帮的头目车南的注意,车南将少年留在部落里,延请各路流派的好手教习泰恩格斗技巧。经过多年的磨练,泰恩(托尼·贾 Tony Jaa 饰)终于成长为身怀绝技的高手,并接任车南晋升为匪帮的新任首领。

虽然数年过去,但他始终没有忘记Rajasena加诸在其家族身上的厄运,他开始走上一条充满血腥和艰险的复仇之路……

  1. ##### MediaInfo ######

  2. General

  3. Complete name : 拳霸[email protected]

  4. Format : MPEG-4

  5. Format profile : Base Media

  6. Codec ID : isom (isom/iso2/avc1/mp41)

  7. File size : 1.36 GiB

  8. Duration : 1 h 32 min

  9. Overall bit rate : 2 100 kb/s

  10. Writing application : Lavf58.76.100

  11. Video

  12. ID : 1

  13. Format : AVC

  14. Format/Info : Advanced Video Codec

  15. Format profile : [email protected]

  16. Format settings : CABAC / 3 Ref Frames

  17. Format settings, CABAC : Yes

  18. Format settings, Reference frames : 3 frames

  19. Codec ID : avc1

  20. Codec ID/Info : Advanced Video Coding

  21. Duration : 1 h 32 min

  22. Source duration : 1 h 32 min

  23. Bit rate : 1 883 kb/s

  24. Maximum bit rate : 1 968 kb/s

  25. Width : 1 920 pixels

  26. Height : 816 pixels

  27. Display aspect ratio : 2.35:1

  28. Frame rate mode : Constant

  29. Frame rate : 25.000 FPS

  30. Color space : YUV

  31. Chroma subsampling : 4:2:0

  32. Bit depth : 8 bits

  33. Scan type : Progressive

  34. Bits/(Pixel*Frame) : 0.048

  35. Stream size : 1.22 GiB (90%)

  36. Source stream size : 1.27 GiB (94%)

  37. Color range : Limited

  38. Color primaries : BT.709

  39. Transfer characteristics : BT.709

  40. Matrix coefficients : BT.709

  41. mdhd_Duration : 5550920

  42. Codec configuration box : avcC

  43. Audio

  44. ID : 2

  45. Format : AAC LC

  46. Format/Info : Advanced Audio Codec Low Complexity

  47. Codec ID : mp4a-40-2

  48. Duration : 1 h 32 min

  49. Bit rate mode : Constant

  50. Bit rate : 125 kb/s

  51. Channel(s) : 2 channels

  52. Channel layout : L R

  53. Sampling rate : 44.1 kHz

  54. Frame rate : 43.066 FPS (1024 SPF)

  55. Compression mode : Lossy

  56. Stream size : 82.6 MiB (6%)

  57. Default : Yes

  58. Alternate group : 1




文件下载


除非特别注明,本文『拳霸2[中文字幕].Ong.bak.2.2008.1080p.WEB-DL.H264.AAC 1.36GB』来源于互联网机器人自动抓取,非本站原创。 浮游电影网不对本文拥有版权,如有侵犯,请联系邮箱:fuyouu#yandex.com[#换成@]投诉。我们会在15个工作日内删除。 但烦请转载时请标明出处:“本文转载于『浮游电影网』,原文地址:https://www.fuyouu.com/14478.html

评论吧骚年!

发表你的见解   

昵称*

E-mail*(建议输入,以便收到博主回复的提示邮件)

验证码*

您可以使用eMule或eMule Mod(Windows)、aMule(Win、Linux、Mac)等软件下载eD2k链接。。
eMule收藏集(.emulecollection)文件是您选中的所有链接的列表文件。eMule可以直接下载它们。
按住SHIFT键选择可以选中多个选择框。
可用文件名和大小选择器来选择文件。
文件名选择器帮您根据文件名称或后缀来选择文件。不分大小写。
符号使用:
和:空格( )、+
不包含:-
或:|
转义:一对英文引号("");
匹配开头:^
匹配结尾:$
例如:
选中所有名称中包含有“eMule”或“0.49c”字眼,但不包含有“exe”字眼的:emule|0.49c -exe
选中所有名称的开头是“eMule”,结尾是“0.49c”的:^emule 0.49c$
选中所有名称中带有“eMule 0.49c”的(必须是“eMule 0.49c”,中间没有别的字符,不能是“eMule fake 0.49c”),需要转义:"emule 0.49c"
大小选择器帮您根据文件大小选择文件。