当前位置: 首页 >> 港台电影 >> 三人做世界[国粤语配音/中文字幕].Heart.Against.Hearts.1992.1080p.BluRay.x265.10bit.FLAC.2Audio 5.89GB >> 正文

三人做世界[国粤语配音/中文字幕].Heart.Against.Hearts.1992.1080p.BluRay.x265.10bit.FLAC.2Audio 5.89GB

2021年09月21日 21:44:02     电影发布:来源于网络     电影分类:港台电影     评论(0)    

三人做世界[国粤语配音/中文字幕].Heart.Against.Hearts.1992.1080p.BluRay.x265.10bit.FLAC.2Audio 5.89GB 喜剧片 港台电影  第1张

◎译 名 三人做世界 / Heart Against Hearts

◎年 代 1992

◎产 地 中国香港

◎类 别 喜剧

◎语 言 粤语

◎上映日期 1992-04-16(中国香港)

◎IMDb链接 https://www.imdb.com/title/tt0102826/

◎豆瓣评分 6.4/10 (751人评价)

◎豆瓣链接 https://movie.douban.com/subject/1308426/

◎片 长 98分钟

◎导 演 冼杞然 Stephen Shin (id:1297480)

◎编 剧 冼杞然 Stephen Shin (id:1297480)

李敏才 Man Choi Lee (id:1326368)

黎妙雪 Miu-suet Lai (id:1289259)

◎演 员 林子祥 George Lam (id:1029253)

郑裕玲 Carol 'Do Do' Cheng (id:1070060)

周慧敏 Vivian Chow (id:1042375)

关秀媚 Suki Kwan (id:1033284)

秦沛 Paul Chun (id:1048476)

金燕玲 Elaine Jin (id:1280673)

陈卓欣 Chan Cheuk Yan (id:1349518)

陈欣健 Philip Chan (id:1007245)

关之琳 Rosamund Kwan (id:1028064)

张曼玉 Maggie Cheung (id:1274231)

王日平 Yat Ping Wong (id:1350616)

林子祥 George Lam (id:1029253)

潘迪生 Dickson Poon (id:1294716)

何添 Tim Ho (id:1408607)

吴伟硕 Wai-Shek Ng (id:1373115)

◎标 签 香港 / 喜剧 / 香港电影 / 周慧敏 / 郑裕玲 / 林子祥 / 爱情 / 1992

◎简 介

刘雅历(林子祥 饰)与朱丽娥(郑裕玲 饰)结为了夫妻,与女儿慧敏(周慧敏 饰)一起开始了新的生活。但没想到新生活将迎接挫折——某银行突然倒闭了,雅历所在的广告公司也破产了。面临事业的雅历感到非常沮丧难过,为新生活蒙上了阴霾。

生活还是要继续的,慧敏与丽娥担当起了养活家庭的责任。可是这样以来便令雅历的心理承受着巨大的压力,家人之间的感情也渐渐变淡。

慧敏跟旧同学一起做金融投资,一向聪明的雅历发现了当中的疑点,怀疑是旧同学骗取慧敏及他人的钱财……

  1. ##### MediaInfo ######

  2. General

  3. Unique ID : 30987402739681321748819691682498641935 (0x174FF4E935F4F6B4D1CE6C80C87C800F)

  4. Complete name : Hear[email protected]BBQDDQ.COM.mkv

  5. Format : Matroska

  6. Format version : Version 4

  7. File size : 5.89 GiB

  8. Duration : 1 h 43 min

  9. Overall bit rate mode : Variable

  10. Overall bit rate : 8 164 kb/s

  11. Movie name : Heart Against Hearts

  12. Encoded date : UTC 2021-09-20 02:43:01

  13. Writing application : mkvmerge v61.0.0 ('So') 64-bit

  14. Writing library : libebml v1.4.2 + libmatroska v1.6.4

  15. Cover : Yes

  16. Attachments : cover.jpg


  17. Video

  18. ID : 1

  19. Format : HEVC

  20. Format/Info : High Efficiency Video Coding

  21. Format profile : Main [email protected]@Main

  22. Codec ID : V_MPEGH/ISO/HEVC

  23. Duration : 1 h 43 min

  24. Bit rate : 6 691 kb/s

  25. Width : 1 920 pixels

  26. Height : 1 080 pixels

  27. Display aspect ratio : 16:9

  28. Frame rate mode : Constant

  29. Frame rate : 24.000 FPS

  30. Color space : YUV

  31. Chroma subsampling : 4:2:0

  32. Bit depth : 10 bits

  33. Bits/(Pixel*Frame) : 0.134

  34. Stream size : 4.83 GiB (82%)

  35. Writing library : x265 3.5+2-g2b25c9ba0+45:[Windows][GCC 10.2.0][64 bit] Yuuki 10bit+8bit+12bit

  36. Encoding settings : rc=crf / crf=21.0000 / qcomp=0.60 / qpstep=4 / stats-write=0 / stats-read=0 / no-lossless / no-cu-lossless / aq-mode=3 / aq-strength=0.90 / cbqpoffs=0 / crqpoffs=0 / ipratio=1.40 / pbratio=1.30 / psy-rd=2.00 / psy-rdoq=0.00 / deblock=0:0 / ref=6 / limit-refs=1 / no-limit-modes / bframes=8 / b-adapt=2 / bframe-bias=0 / b-pyramid / b-intra / weightp / weightb / min-keyint=24 / max-keyint=240 / rc-lookahead=24 / gop-lookahead=0 / NTMzNTQ=uuDQuD2mJt9fsCf / scenecut=40 / hist-scenecut=0 / radl=0 / max-cu-size=64 / min-cu-size=8 / me=3 / subme=7 / merange=48 / rdoq-level=0 / rd=4 / rdpenalty=0 / dynamic-rd=0.00 / no-rd-refine / ----- / cutree / sao / no-rect / no-amp / no-open-gop / wpp / no-pmode / no-pme / no-psnr / no-ssim / nr-intra=0 / nr-inter=0 / no-constrained-intra / no-strong-intra-smoothing / max-tu-size=32 / tu-inter-depth=1 / tu-intra-depth=1 / limit-tu=0 / qg-size=32 / qpmax=69 / qpmin=0 / ----- / cpuid=533541111039 / frame-threads=4 / numa-pools=+ / log-level=2 / input-csp=1 / input-res=1920x1080 / interlace=0 / level-idc=0 / high-tier=1 / uhd-bd=0 / no-allow-non-conformance / no-repeat-headers / aud / no-hrd / info / hash=0 / no-temporal-layers / lookahead-slices=0 / no-splice / no-intra-refresh / no-ssim-rd / signhide / no-tskip / max-merge=3 / temporal-mvp / no-frame-dup / no-hme / no-analyze-src-pics / no-sao-non-deblock / selective-sao=4 / early-skip / rskip / no-fast-intra / no-tskip-fast / no-splitrd-skip / zone-count=0 / no-strict-cbr / no-rc-grain / no-const-vbv / sar=0 / overscan=0 / videoformat=5 / range=0 / colorprim=2 / transfer=2 / colormatrix=2 / chromaloc=0 / display-window=0 / cll=0,0 / min-luma=0 / max-luma=1023 / log2-max-poc-lsb=8 / vui-timing-info / vui-hrd-info / slices=1 / no-opt-qp-pps / no-opt-ref-list-length-pps / no-multi-pass-opt-rps / scenecut-bias=0.05 / hist-threshold=0.03 / no-opt-cu-delta-qp / no-aq-motion / no-hdr10 / no-hdr10-opt / no-dhdr10-opt / no-idr-recovery-sei / analysis-reuse-level=0 / analysis-save-reuse-level=0 / analysis-load-reuse-level=0 / scale-factor=0 / refine-intra=0 / refine-inter=0 / refine-mv=1 / refine-ctu-distortion=0 / no-limit-sao / ctu-info=0 / no-lowpass-dct / refine-analysis-type=0 / copy-pic=1 / max-ausize-factor=1.0 / no-dynamic-refine / no-single-sei / no-hevc-aq / no-svt / no-field / qp-adaptation-range=1.00 / scenecut-aware-qp=0conformance-window-offsets / right=0 / bottom=0 / NTMzNTQ= / decoder-max-rate=0 / no-vbv-live-multi-pass

  37. Default : Yes

  38. Forced : No


  39. Audio #1

  40. ID : 2

  41. Format : FLAC

  42. Format/Info : Free Lossless Audio Codec

  43. Codec ID : A_FLAC

  44. Duration : 1 h 43 min

  45. Bit rate mode : Variable

  46. Bit rate : 674 kb/s

  47. Channel(s) : 2 channels

  48. Channel layout : L R

  49. Sampling rate : 48.0 kHz

  50. Frame rate : 11.719 FPS (4096 SPF)

  51. Bit depth : 24 bits

  52. Compression mode : Lossless

  53. Stream size : 498 MiB (8%)

  54. Title : Cantonese

  55. Writing library : libFLAC 1.2.1 (UTC 2007-09-17)

  56. Language : Chinese

  57. Default : Yes

  58. Forced : No


  59. Audio #2

  60. ID : 3

  61. Format : FLAC

  62. Format/Info : Free Lossless Audio Codec

  63. Codec ID : A_FLAC

  64. Duration : 1 h 43 min

  65. Bit rate mode : Variable

  66. Bit rate : 746 kb/s

  67. Channel(s) : 2 channels

  68. Channel layout : L R

  69. Sampling rate : 48.0 kHz

  70. Frame rate : 11.719 FPS (4096 SPF)

  71. Bit depth : 24 bits

  72. Compression mode : Lossless

  73. Stream size : 551 MiB (9%)

  74. Title : Mandarin

  75. Writing library : libFLAC 1.2.1 (UTC 2007-09-17)

  76. Language : Chinese

  77. Default : No

  78. Forced : No


  79. Text #1

  80. ID : 4

  81. ID in the original source medium : 4609 (0x1201)

  82. Format : PGS

  83. Muxing mode : zlib

  84. Codec ID : S_HDMV/PGS

  85. Codec ID/Info : Picture based subtitle format used on BDs/HD-DVDs

  86. Duration : 1 h 40 min

  87. Bit rate : 46.5 kb/s

  88. Count of elements : 2626

  89. Stream size : 33.5 MiB (1%)

  90. Title : chs

  91. Language : Chinese

  92. Default : Yes

  93. Forced : No

  94. Original source medium : Blu-ray


  95. Text #2

  96. ID : 5

  97. ID in the original source medium : 4608 (0x1200)

  98. Format : PGS

  99. Muxing mode : zlib

  100. Codec ID : S_HDMV/PGS

  101. Codec ID/Info : Picture based subtitle format used on BDs/HD-DVDs

  102. Duration : 1 h 40 min

  103. Bit rate : 47.4 kb/s

  104. Count of elements : 2624

  105. Stream size : 34.2 MiB (1%)

  106. Title : cht

  107. Language : Chinese

  108. Default : No

  109. Forced : No

  110. Original source medium : Blu-ray


  111. Text #3

  112. ID : 6

  113. ID in the original source medium : 4610 (0x1202)

  114. Format : PGS

  115. Muxing mode : zlib

  116. Codec ID : S_HDMV/PGS

  117. Codec ID/Info : Picture based subtitle format used on BDs/HD-DVDs

  118. Duration : 1 h 40 min

  119. Bit rate : 55.7 kb/s

  120. Count of elements : 2566

  121. Stream size : 40.1 MiB (1%)

  122. Title : eng

  123. Language : English

  124. Default : No

  125. Forced : No

  126. Original source medium : Blu-ray


  127. Menu

  128. 00:00:00.000 : 第 01 章

  129. 00:08:36.625 : 第 02 章

  130. 00:19:30.666 : 第 03 章

  131. 00:25:02.083 : 第 04 章

  132. 00:33:50.833 : 第 05 章

  133. 00:41:31.458 : 第 06 章

  134. 00:51:01.541 : 第 07 章

  135. 00:59:42.041 : 第 08 章

  136. 01:08:12.083 : 第 09 章

  137. 01:16:47.250 : 第 10 章

  138. 01:27:52.708 : 第 11 章

  139. 01:36:54.000 : 第 12 章


文件下载


除非特别注明,本文『三人做世界[国粤语配音/中文字幕].Heart.Against.Hearts.1992.1080p.BluRay.x265.10bit.FLAC.2Audio 5.89GB』来源于互联网机器人自动抓取,非本站原创。 浮游电影网不对本文拥有版权,如有侵犯,请联系邮箱:fuyouu#yandex.com[#换成@]投诉。我们会在15个工作日内删除。 但烦请转载时请标明出处:“本文转载于『浮游电影网』,原文地址:https://www.fuyouu.com/14477.html

评论吧骚年!

发表你的见解   

昵称*

E-mail*(建议输入,以便收到博主回复的提示邮件)

验证码*

您可以使用eMule或eMule Mod(Windows)、aMule(Win、Linux、Mac)等软件下载eD2k链接。。
eMule收藏集(.emulecollection)文件是您选中的所有链接的列表文件。eMule可以直接下载它们。
按住SHIFT键选择可以选中多个选择框。
可用文件名和大小选择器来选择文件。
文件名选择器帮您根据文件名称或后缀来选择文件。不分大小写。
符号使用:
和:空格( )、+
不包含:-
或:|
转义:一对英文引号("");
匹配开头:^
匹配结尾:$
例如:
选中所有名称中包含有“eMule”或“0.49c”字眼,但不包含有“exe”字眼的:emule|0.49c -exe
选中所有名称的开头是“eMule”,结尾是“0.49c”的:^emule 0.49c$
选中所有名称中带有“eMule 0.49c”的(必须是“eMule 0.49c”,中间没有别的字符,不能是“eMule fake 0.49c”),需要转义:"emule 0.49c"
大小选择器帮您根据文件大小选择文件。