当前位置: 首页 >> 日韩电影 >> 午夜[中文字幕].Midnight.2021.2160p.WEB-DL.H265.AAC 3.16GB >> 正文

午夜[中文字幕].Midnight.2021.2160p.WEB-DL.H265.AAC 3.16GB

2021年09月21日 21:41:36     电影发布:来源于网络     电影分类:日韩电影     评论(0)    

午夜[中文字幕].Midnight.2021.2160p.WEB DL.H265.AAC 3.16GB 悬疑片 惊悚片 日韩电影  第1张

◎译 名 午夜 / Midnight

◎片 名 ?????

◎年 代 2021

◎产 地 韩国

◎类 别 悬疑 / 惊悚

◎语 言 韩语

◎上映日期 2021-06-30(韩国)

◎IMDb链接 https://www.imdb.com/title/tt14757872/

◎豆瓣评分 5.6/10 (1388人评价)

◎豆瓣链接 https://movie.douban.com/subject/34858164/

◎片 长 103分钟

◎导 演 权吾胜 Oh-seung Kwon (id:1458072)

◎编 剧 权吾胜 Oh-seung Kwon (id:1458072)

◎演 员 秦基周 Ki-joo Jin (id:1382573)

魏化俊 Ha-joon Wi (id:1388287)

朴勋 Park Hoon (id:1383035)

吉海妍 Hae-yeon Gil (id:1381683)

金惠奫 Hye-yoon Kim (id:1408722)

朴智勋 Park Ji-hoon (id:1445016)

◎标 签 犯罪 / 韩国 / 悬疑 / 韩国电影 / 变态 / 2021 / 越看越想笑 / 秦基周

◎简 介

该片讲述的是一名在客服中心工作的聋哑人“京美”(秦基周 饰)在午夜偶然遇到连环杀人魔“度植”(魏化儁 饰)而展开的深夜追击战。

  1. ##### MediaInfo ######

  2. General

  3. Unique ID : 270353315578746271115584438004586184357 (0xCB6427941C79571A20311F515FE4FEA5)

  4. Complete name : [email protected]

  5. Format : Matroska

  6. Format version : Version 4

  7. File size : 3.16 GiB

  8. Duration : 1 h 39 min

  9. Overall bit rate : 4 551 kb/s

  10. Encoded date : UTC 2021-09-19 13:11:34

  11. Writing application : mkvmerge v56.1.0 ('My Friend') 64-bit

  12. Writing library : libebml v1.4.2 + libmatroska v1.6.4


  13. Video

  14. ID : 1

  15. Format : HEVC

  16. Format/Info : High Efficiency Video Coding

  17. Format profile : [email protected]@Main

  18. Codec ID : V_MPEGH/ISO/HEVC

  19. Duration : 1 h 39 min

  20. Bit rate : 4 359 kb/s

  21. Width : 3 840 pixels

  22. Height : 1 608 pixels

  23. Display aspect ratio : 2.40:1

  24. Frame rate mode : Constant

  25. Frame rate : 25.000 FPS

  26. Color space : YUV

  27. Chroma subsampling : 4:2:0

  28. Bit depth : 8 bits

  29. Bits/(Pixel*Frame) : 0.028

  30. Stream size : 3.02 GiB (96%)

  31. Default : Yes

  32. Forced : No


  33. Audio

  34. ID : 2

  35. Format : AAC LC

  36. Format/Info : Advanced Audio Codec Low Complexity

  37. Codec ID : A_AAC-2

  38. Duration : 1 h 39 min

  39. Bit rate : 192 kb/s

  40. Channel(s) : 2 channels

  41. Channel layout : L R

  42. Sampling rate : 44.1 kHz

  43. Frame rate : 43.066 FPS (1024 SPF)

  44. Compression mode : Lossy

  45. Stream size : 135 MiB (4%)

  46. Language : Korean

  47. Default : Yes

  48. Forced : No


  49. Text #1

  50. ID : 3

  51. Format : UTF-8

  52. Codec ID : S_TEXT/UTF8

  53. Codec ID/Info : UTF-8 Plain Text

  54. Duration : 1 h 33 min

  55. Bit rate : 29 b/s

  56. Count of elements : 900

  57. Stream size : 20.3 KiB (0%)

  58. Title : Chinese Simplified

  59. Language : Chinese

  60. Default : Yes

  61. Forced : No


  62. Text #2

  63. ID : 4

  64. Format : UTF-8

  65. Codec ID : S_TEXT/UTF8

  66. Codec ID/Info : UTF-8 Plain Text

  67. Duration : 1 h 33 min

  68. Bit rate : 29 b/s

  69. Count of elements : 900

  70. Stream size : 20.3 KiB (0%)

  71. Title : Chinese Traditional

  72. Language : Chinese

  73. Default : No

  74. Forced : No


  75. Text #3

  76. ID : 5

  77. Format : UTF-8

  78. Codec ID : S_TEXT/UTF8

  79. Codec ID/Info : UTF-8 Plain Text

  80. Duration : 1 h 33 min

  81. Bit rate : 29 b/s

  82. Count of elements : 900

  83. Stream size : 20.4 KiB (0%)

  84. Title : English

  85. Language : English

  86. Default : No

  87. Forced : No


文件下载


除非特别注明,本文『午夜[中文字幕].Midnight.2021.2160p.WEB-DL.H265.AAC 3.16GB』来源于互联网机器人自动抓取,非本站原创。 浮游电影网不对本文拥有版权,如有侵犯,请联系邮箱:fuyouu#yandex.com[#换成@]投诉。我们会在15个工作日内删除。 但烦请转载时请标明出处:“本文转载于『浮游电影网』,原文地址:https://www.fuyouu.com/14475.html

评论吧骚年!

发表你的见解   

昵称*

E-mail*(建议输入,以便收到博主回复的提示邮件)

验证码*

您可以使用eMule或eMule Mod(Windows)、aMule(Win、Linux、Mac)等软件下载eD2k链接。。
eMule收藏集(.emulecollection)文件是您选中的所有链接的列表文件。eMule可以直接下载它们。
按住SHIFT键选择可以选中多个选择框。
可用文件名和大小选择器来选择文件。
文件名选择器帮您根据文件名称或后缀来选择文件。不分大小写。
符号使用:
和:空格( )、+
不包含:-
或:|
转义:一对英文引号("");
匹配开头:^
匹配结尾:$
例如:
选中所有名称中包含有“eMule”或“0.49c”字眼,但不包含有“exe”字眼的:emule|0.49c -exe
选中所有名称的开头是“eMule”,结尾是“0.49c”的:^emule 0.49c$
选中所有名称中带有“eMule 0.49c”的(必须是“eMule 0.49c”,中间没有别的字符,不能是“eMule fake 0.49c”),需要转义:"emule 0.49c"
大小选择器帮您根据文件大小选择文件。