当前位置: 首页 >> 日韩电影 >> 指定律师[中文字幕].Designated.Lawyer.2018.1080p.KKTV.WEB-DL.AAC2.0.x264 2.31GB >> 正文

指定律师[中文字幕].Designated.Lawyer.2018.1080p.KKTV.WEB-DL.AAC2.0.x264 2.31GB

2021年09月21日 21:40:38     电影发布:来源于网络     电影分类:日韩电影     评论(0)    

指定律师[中文字幕].Designated.Lawyer.2018.1080p.KKTV.WEB DL.AAC2.0.x264 2.31GB 剧情片 日韩电影  第1张

◎译 名 指定律师

◎片 名 指定弁護士

◎年 代 2018

◎产 地 日本

◎类 别 剧情

◎语 言 日语

◎上映日期 2018-09-23(日本)

◎IMDb链接 https://www.imdb.com/title/tt10568440/

◎豆瓣评分 5.8/10 (425人评价)

◎豆瓣链接 https://movie.douban.com/subject/30299821/

◎片 长 125分钟

◎导 演 竹园元 Hajime Takezono (id:1320121)

◎编 剧 樱井武晴 Takahiro Sakurai (id:1320562)

◎演 员 北川景子 Keiko Kitagawa (id:1023064)

北村一辉 Kazuki Kitamura (id:1012650)

江成一树 Kazuki Enari (id:1322914)

生濑胜久 Katsuhisa Namase (id:1029321)

松重丰 Yutaka Matsushige (id:1016968)

羽田美智子 Michiko Hada (id:1029040)

相岛一之 Kazuyuki Aijima (id:1038825)

矢柴俊博 Toshihiro Yashiba (id:1275800)

正名仆蔵 Bokuz? Masana (id:1312762)

真飞圣 Sei Matobu (id:1319110)

石桥莲司 Renji Ishibashi (id:1054279)

中村梅雀 Baijaku Nakamura (id:1039574)

◎标 签 日本 / SP / 律政 / 2018 / 法律 / 剧情 / 日剧sp / 科普

◎简 介

以京都为舞台,该作品是一部描绘了由市民组成的检查审查会连续两次判断检察官不起诉事件时出现的指定律师的法律电视剧,律师与检察官的组合解开事件的真相。

所谓「指定律师」是指检察“不起诉”的嫌疑犯,由市民组成的「检察审查会」连续2次判断“应起诉”的时候,由指定律师行使检察官职务。

  1. ##### MediaInfo ######

  2. General

  3. Unique ID : 326726151281397434965304364428954296849 (0xF5CD2AF758F784AAE5603FC46249E211)

  4. Complete name : [email protected]Q.COM.mkv

  5. Format : Matroska

  6. Format version : Version 4

  7. File size : 2.31 GiB

  8. Duration : 1 h 41 min

  9. Overall bit rate : 3 260 kb/s

  10. Encoded date : UTC 2021-09-19 14:32:04

  11. Writing application : mkvmerge v56.1.0 ('My Friend') 64-bit

  12. Writing library : libebml v1.4.2 + libmatroska v1.6.4


  13. Video

  14. ID : 1

  15. Format : AVC

  16. Format/Info : Advanced Video Codec

  17. Format profile : [email protected]

  18. Format settings : CABAC / 5 Ref Frames

  19. Format settings, CABAC : Yes

  20. Format settings, Reference frames : 5 frames

  21. Codec ID : V_MPEG4/ISO/AVC

  22. Duration : 1 h 41 min

  23. Bit rate : 3 059 kb/s

  24. Width : 1 920 pixels

  25. Height : 1 080 pixels

  26. Display aspect ratio : 16:9

  27. Frame rate mode : Constant

  28. Frame rate : 29.970 (30000/1001/53354) FPS

  29. Color space : YUV

  30. Chroma subsampling : 4:2:0

  31. Bit depth : 8 bits

  32. Scan type : Progressive

  33. Bits/(Pixel*Frame) : 0.049

  34. Stream size : 2.17 GiB (94%)

  35. Writing library : x264 core 142

  36. Encoding settings : cabac=1 / ref=5 / deblock=1:0:0 / analyse=0x3:0x113 / me=umh / subme=9 / psy=1 / psy_rd=1.00:0.00 / mixed_ref=1 / me_range=32 / chroma_me=1 / trellis=1 / 8x8dct=1 / cqm=0 / deadzone=21,11 / fast_pskip=1 / chroma_qp_offset=-2 / threads=6 / lookahead_threads=1 / sliced_threads=0 / nr=0 / decimate=1 / interlaced=0 / NTMzNTQ= / bluray_compat=0 / stitchable=1 / constrained_intra=0 / bframes=3 / b_pyramid=2 / b_adapt=1 / b_bias=0 / direct=3 / weightb=1 / open_gop=0 / weightp=2 / keyint=30 / keyint_min=3 / scenecut=0 / intra_refresh=0 / rc_lookahead=40 / rc=abr / mbtree=1 / bitrate=3059 / ratetol=1.0 / qcomp=0.60 / qpmin=0 / qpmax=69 / qpstep=4 / vbv_maxrate=4588 / vbv_bufsize=6882 / nal_hrd=none / filler=0 / NTMzNTQ=LmsMAP37EqsCpk / ip_ratio=1.40 / aq=1:1.00

  37. Language : English

  38. Default : Yes

  39. Forced : No


  40. Audio

  41. ID : 2

  42. Format : AAC LC

  43. Format/Info : Advanced Audio Codec Low Complexity

  44. Codec ID : A_AAC-2

  45. Duration : 1 h 41 min

  46. Bit rate : 192 kb/s

  47. Channel(s) : 2 channels

  48. Channel layout : L R

  49. Sampling rate : 44.1 kHz

  50. Frame rate : 43.066 FPS (1024 SPF)

  51. Compression mode : Lossy

  52. Stream size : 139 MiB (6%)

  53. Language : Japanese

  54. Default : Yes

  55. Forced : No


  56. Text #1

  57. ID : 3

  58. Format : UTF-8

  59. Codec ID : S_TEXT/UTF8

  60. Codec ID/Info : UTF-8 Plain Text

  61. Duration : 1 h 41 min

  62. Bit rate : 69 b/s

  63. Count of elements : 1683

  64. Stream size : 51.9 KiB (0%)

  65. Title : Chinese Simplified

  66. Language : Chinese

  67. Default : Yes

  68. Forced : No


  69. Text #2

  70. ID : 4

  71. Format : UTF-8

  72. Codec ID : S_TEXT/UTF8

  73. Codec ID/Info : UTF-8 Plain Text

  74. Duration : 1 h 41 min

  75. Bit rate : 69 b/s

  76. Count of elements : 1683

  77. Stream size : 51.9 KiB (0%)

  78. Title : Chinese Traditional

  79. Language : Chinese

  80. Default : No

  81. Forced : No


  82. Text #3

  83. ID : 5

  84. Format : UTF-8

  85. Codec ID : S_TEXT/UTF8

  86. Codec ID/Info : UTF-8 Plain Text

  87. Duration : 1 h 41 min

  88. Bit rate : 95 b/s

  89. Count of elements : 1532

  90. Stream size : 70.9 KiB (0%)

  91. Title : Japanese

  92. Language : Japanese

  93. Default : No

  94. Forced : No


文件下载


除非特别注明,本文『指定律师[中文字幕].Designated.Lawyer.2018.1080p.KKTV.WEB-DL.AAC2.0.x264 2.31GB』来源于互联网机器人自动抓取,非本站原创。 浮游电影网不对本文拥有版权,如有侵犯,请联系邮箱:fuyouu#yandex.com[#换成@]投诉。我们会在15个工作日内删除。 但烦请转载时请标明出处:“本文转载于『浮游电影网』,原文地址:https://www.fuyouu.com/14474.html

评论吧骚年!

发表你的见解   

昵称*

E-mail*(建议输入,以便收到博主回复的提示邮件)

验证码*

您可以使用eMule或eMule Mod(Windows)、aMule(Win、Linux、Mac)等软件下载eD2k链接。。
eMule收藏集(.emulecollection)文件是您选中的所有链接的列表文件。eMule可以直接下载它们。
按住SHIFT键选择可以选中多个选择框。
可用文件名和大小选择器来选择文件。
文件名选择器帮您根据文件名称或后缀来选择文件。不分大小写。
符号使用:
和:空格( )、+
不包含:-
或:|
转义:一对英文引号("");
匹配开头:^
匹配结尾:$
例如:
选中所有名称中包含有“eMule”或“0.49c”字眼,但不包含有“exe”字眼的:emule|0.49c -exe
选中所有名称的开头是“eMule”,结尾是“0.49c”的:^emule 0.49c$
选中所有名称中带有“eMule 0.49c”的(必须是“eMule 0.49c”,中间没有别的字符,不能是“eMule fake 0.49c”),需要转义:"emule 0.49c"
大小选择器帮您根据文件大小选择文件。