当前位置: 首页 >> 日韩电影 >> 浪矢解忧杂货店[中文字幕].The.Miracles.of.the.Namiya.General.Store.2017.1080p.FriDay.WEB-DL.H264.AAC 3.01GB >> 正文

浪矢解忧杂货店[中文字幕].The.Miracles.of.the.Namiya.General.Store.2017.1080p.FriDay.WEB-DL.H264.AAC 3.01GB

2021年09月21日 21:39:41     电影发布:来源于网络     电影分类:日韩电影     评论(0)    

浪矢解忧杂货店[中文字幕].The.Miracles.of.the.Namiya.General.Store.2017.1080p.FriDay.WEB DL.H264.AAC 3.01GB 奇幻片 剧情片 日韩电影  第1张

◎译 名 浪矢解忧杂货店 / 解忧杂货店 / Miracles of the Namiya General Store

◎片 名 ナミヤ雑貨店の奇蹟

◎年 代 2017

◎产 地 日本

◎类 别 剧情 / 奇幻

◎语 言 日语

◎上映日期 2018-02-02(中国大陆) / 2017-09-23(日本)

◎IMDb链接 https://www.imdb.com/title/tt6298600/

◎豆瓣评分 7.2/10 (80053人评价)

◎豆瓣链接 https://movie.douban.com/subject/26742730/

◎片 长 129分钟

◎导 演 广木隆一 Ryuichi Hiroki (id:1286685)

◎编 剧 齐藤浩史 Hiroshi Sait? (id:1304066)

东野圭吾 Keigo Higashino (id:1006330)

◎演 员 山田凉介 Ry?suke Yamada (id:1239272)

村上虹郎 Nijiro Murakami (id:1342488)

宽一郎 Kan'ichiro Sato (id:1370121)

成海璃子 Riko Narumi (id:1023486)

门胁麦 Mugi Kadowaki (id:1329131)

林遣都 Kento Hayashi (id:1038106)

铃木梨央 Suzuki Rio (id:1331012)

山下莉绪 Rio Yamashita (id:1275841)

手塚通 Toru Tezuka (id:1314870)

中村治雄 PANTA (id:1382409)

萩原圣人 Masato Hagiwara (id:1098360)

小林薰 Kaoru Kobayashi (id:1051523)

吉行和子 Kazuko Yoshiyuki (id:1025510)

尾野真千子 Machiko Ono (id:1042642)

西田敏行 Toshiyuki Nishida (id:1041742)

孔祥艾 Xiang'ai Kong (id:1429546)

中川理仁 Rihito Nakagawa (id:1389554)

孔祥艾 Xiang'ai Kong (id:1429546)

◎标 签 日本 / 小说改编 / 温情 / 温暖 / 奇幻 / 人生 / 剧情 / 文艺

◎简 介

2012年的一个夜晚,自幼在某孤儿院长大的敦也(山田凉介 饰)、翔太(村上虹郎 饰)和幸平(宽一郎 饰)对某女企业家实施了抢劫,由于汽车意外抛锚,他们仓皇逃到了一家早已关张的杂货店内躲藏。这家名为浪矢杂货店的铺子此前由风趣和善的老人浪矢雄治(西田敏行 饰)经营,数十年前他出于玩笑帮小朋友们解答各种困扰,后来名气越来越大,以至于有人专程向他咨询人生中的难题。本来从1980年就该沉寂的店铺,却在三人闯进来后收到了烦恼咨询信。随后敦也等人发现,这些信件竟然来自遥远的过去。神秘的夜晚,迷途青年执笔为他人排忧解难,他们的命运和这家解忧杂货店紧紧联系在了一起……

本片根据日本人气推理作家东野圭吾的同名原作改编。

◎获奖情况 (共7项)

第41届日本电影学院奖 (2018)

最佳影片(提名)

最佳导演(提名)

└──广木隆一 (id:1286685)

最佳编剧(提名)

└──齐藤浩史 (id:1304066)

最佳男配角(提名)

└──西田敏行 (id:1041742)

最佳女配角(提名)

└──尾野真千子 (id:1042642)

最佳美术指导(提名)

第5届豆瓣电影年度榜单 (2018)

评分最高的日本电影(提名)

  1. ##### MediaInfo ######

  2. General

  3. Unique ID : 72488602151902395882268969030796900330 (0x3688CC04FCF358095D939ACA65A2F7EA)

  4. Complete name : The.Miracles.of.t[email protected]BBQDDQ.COM.mkv

  5. Format : Matroska

  6. Format version : Version 4

  7. File size : 3.01 GiB

  8. Duration : 2 h 10 min

  9. Overall bit rate : 3 310 kb/s

  10. Encoded date : UTC 2021-09-20 02:30:38

  11. Writing application : mkvmerge v56.1.0 ('My Friend') 64-bit

  12. Writing library : libebml v1.4.2 + libmatroska v1.6.4


  13. Video

  14. ID : 1

  15. Format : AVC

  16. Format/Info : Advanced Video Codec

  17. Format profile : [email protected]

  18. Format settings : CABAC / 4 Ref Frames

  19. Format settings, CABAC : Yes

  20. Format settings, Reference frames : 4 frames

  21. Codec ID : V_MPEG4/ISO/AVC

  22. Duration : 2 h 10 min

  23. Bit rate mode : Constant

  24. Bit rate : 3 182 kb/s

  25. Nominal bit rate : 4 000 kb/s

  26. Width : 1 920 pixels

  27. Height : 1 080 pixels

  28. Display aspect ratio : 16:9

  29. Frame rate mode : Constant

  30. Frame rate : 29.970 (30000/1001/53354) FPS

  31. Color space : YUV

  32. Chroma subsampling : 4:2:0

  33. Bit depth : 8 bits

  34. Scan type : Progressive

  35. Bits/(Pixel*Frame) : 0.051

  36. Stream size : 2.89 GiB (96%)

  37. Language : English

  38. Default : Yes

  39. Forced : No


  40. Audio

  41. ID : 2

  42. Format : AAC LC

  43. Format/Info : Advanced Audio Codec Low Complexity

  44. Codec ID : A_AAC-2

  45. Duration : 2 h 10 min

  46. Bit rate : 125 kb/s

  47. Channel(s) : 2 channels

  48. Channel layout : L R

  49. Sampling rate : 48.0 kHz

  50. Frame rate : 46.875 FPS (1024 SPF)

  51. Compression mode : Lossy

  52. Stream size : 117 MiB (4%)

  53. Title : Japanese

  54. Language : Japanese

  55. Default : Yes

  56. Forced : No


  57. Text #1

  58. ID : 3

  59. Format : UTF-8

  60. Codec ID : S_TEXT/UTF8

  61. Codec ID/Info : UTF-8 Plain Text

  62. Duration : 2 h 7 min

  63. Bit rate : 25 b/s

  64. Count of elements : 1058

  65. Stream size : 24.3 KiB (0%)

  66. Title : Chinese Simplified

  67. Language : Chinese

  68. Default : Yes

  69. Forced : No


  70. Text #2

  71. ID : 4

  72. Format : UTF-8

  73. Codec ID : S_TEXT/UTF8

  74. Codec ID/Info : UTF-8 Plain Text

  75. Duration : 2 h 7 min

  76. Bit rate : 25 b/s

  77. Count of elements : 1058

  78. Stream size : 24.3 KiB (0%)

  79. Title : Chinese Traditional

  80. Language : Chinese

  81. Default : No

  82. Forced : No



文件下载


除非特别注明,本文『浪矢解忧杂货店[中文字幕].The.Miracles.of.the.Namiya.General.Store.2017.1080p.FriDay.WEB-DL.H264.AAC 3.01GB』来源于互联网机器人自动抓取,非本站原创。 浮游电影网不对本文拥有版权,如有侵犯,请联系邮箱:fuyouu#yandex.com[#换成@]投诉。我们会在15个工作日内删除。 但烦请转载时请标明出处:“本文转载于『浮游电影网』,原文地址:https://www.fuyouu.com/14473.html

评论吧骚年!

发表你的见解   

昵称*

E-mail*(建议输入,以便收到博主回复的提示邮件)

验证码*

您可以使用eMule或eMule Mod(Windows)、aMule(Win、Linux、Mac)等软件下载eD2k链接。。
eMule收藏集(.emulecollection)文件是您选中的所有链接的列表文件。eMule可以直接下载它们。
按住SHIFT键选择可以选中多个选择框。
可用文件名和大小选择器来选择文件。
文件名选择器帮您根据文件名称或后缀来选择文件。不分大小写。
符号使用:
和:空格( )、+
不包含:-
或:|
转义:一对英文引号("");
匹配开头:^
匹配结尾:$
例如:
选中所有名称中包含有“eMule”或“0.49c”字眼,但不包含有“exe”字眼的:emule|0.49c -exe
选中所有名称的开头是“eMule”,结尾是“0.49c”的:^emule 0.49c$
选中所有名称中带有“eMule 0.49c”的(必须是“eMule 0.49c”,中间没有别的字符,不能是“eMule fake 0.49c”),需要转义:"emule 0.49c"
大小选择器帮您根据文件大小选择文件。