当前位置: 首页 >> 日韩电影 >> 嫌疑人X的献身[中文字幕].Suspect.X.2008.1080p.BluRay.DTS.x265-10bit 8.68GB >> 正文

嫌疑人X的献身[中文字幕].Suspect.X.2008.1080p.BluRay.DTS.x265-10bit 8.68GB

2021年09月21日 21:36:13     电影发布:来源于网络     电影分类:日韩电影     评论(0)    

嫌疑人X的献身[中文字幕].Suspect.X.2008.1080p.BluRay.DTS.x265 10bit 8.68GB 悬疑片 犯罪片 剧情片 日韩电影  第1张

◎译 名 嫌疑人X的献身 / 容疑者X的献身 / 嫌疑犯X的献身 / 神探伽俐略 / Y?gisha X no kenshin / Suspect X

◎片 名 容疑者Xの献身

◎年 代 2008

◎产 地 日本

◎类 别 剧情 / 悬疑 / 犯罪

◎语 言 日语

◎上映日期 2008-10-04(日本)

◎IMDb链接 https://www.imdb.com/title/tt1160629/

◎豆瓣评分 8.4/10 (193204人评价)

◎豆瓣链接 https://movie.douban.com/subject/2369845/

◎片 长 128分钟

◎导 演 西谷弘 Hiroshi Nishitani (id:1316253)

◎编 剧 福田靖 Yasushi Fukuda (id:1321004)

东野圭吾 Keigo Higashino (id:1006330)

◎演 员 福山雅治 Masaharu Fukuyama (id:1006103)

柴崎幸 Kou Shibasaki (id:1141865)

堤真一 Shin'ichi Tsutsumi (id:1151079)

松雪泰子 Yasuko Matsuyuki (id:1037529)

北村一辉 Kazuki Kitamura (id:1012650)

金泽美穗 Miho Kanazawa (id:1314831)

林刚史 Tsuyoshi Hayashi (id:1024403)

邓肯 Dankan (id:1015088)

八木亚希子 Akiko Yagi (id:1012512)

林泰文 Yasufumi Hayashi (id:1038997)

葵 Aoi (id:1275955)

东根作寿英 Toshihide Tonesaku (id:1318886)

三浦诚己 Masaki Miura (id:1043336)

渡边一计 Ikkei Watanabe (id:1043351)

长塚圭史 Keishi Nagatsuka (id:1343055)

中川雅也 Lily Franky (id:1042693)

品川祐 Hiroshi Shinagawa (id:1315820)

森冈龙 Ry? Morioka (id:1318963)

真矢美纪 Miki Maya (id:1008516)

益冈彻 T?ru Masuoka (id:1120244)

石坂浩二 K?ji Ishizaka (id:1109420)

小松彩夏 Ayaka Komatsu (id:1023599)

铃木卓尔 Takuji Suzuki (id:1006693)

菅野祐悟 Kanno Yuugo (id:1406771)

山本英夫 Hideo Yamamoto (id:1301392)

部谷京子 Ky?ko Heya (id:1286566)

◎标 签 东野圭吾 / 推理 / 日本 / 悬疑 / 福山雅治 / 日本电影 / 犯罪 / 堤真一

◎简 介

天才物理学家汤川学(福山雅治 饰)此次又受内海薰(柴崎幸 饰)所托,调查一件不可思议命案。受害人富樫慎二被发现死在河边,面目指纹尽毁。最大的嫌疑人是他的前妻花冈靖子(松雪泰子 饰),然而靖子却有着完美的不在场证明。一个人能够同一时间出现在不同地方吗?当汤川发现住在靖子隔壁的是当年的大学同学、同为天才的数学家石神哲哉(堤真一 饰)时引起兴趣。

毕业后因要照顾父母没有留校反而去高中教数学、一直生活得很落魄的石神每晚利用公用电话教靖子如何应对警察追查,靖子渐渐感到被束缚,但是由于给出的口供毫无可疑之处,警察决定放弃对靖子的调查,这时汤川却指出石神是关键人物。

案件的真相如何?世界上真有一个人同时出现在两个地方的事情吗?本片改编自日本人气推理小说家东野圭吾06年的直木奖获奖作品。

◎获奖情况 (共6项)

第28届香港电影金像奖 (2009)

最佳亚洲电影(提名)

第32届日本电影学院奖 (2009)

话题奖 最具话题影片奖

最佳影片(提名)

最佳男配角(提名)

└──堤真一 (id:1151079)

最佳女配角(提名)

└──松雪泰子 (id:1037529)

第3届亚洲电影大奖 (2009)

最佳男配角(提名)

└──堤真一 (id:1151079)

  1. ##### MediaInfo ######

  2. General

  3. Unique ID : 259820904979499553876152293324244357345 (0xC377AFA4C270707C0BEC25AD720F90E1)

  4. Complete name : [email protected]

  5. Format : Matroska

  6. Format version : Version 4

  7. File size : 8.68 GiB

  8. Duration : 2 h 8 min

  9. Overall bit rate : 9 687 kb/s

  10. Movie name : Suspect X 2008 1080p BluRay DTS [email protected]

  11. Encoded date : UTC 2021-09-19 04:24:05

  12. Writing application : mkvmerge v38.0.0 ('The Silent Type') 64-bit

  13. Writing library : libebml v1.3.9 + libmatroska v1.5.2


  14. Video

  15. ID : 1

  16. Format : HEVC

  17. Format/Info : High Efficiency Video Coding

  18. Format profile : Main [email protected]@High

  19. Codec ID : V_MPEGH/ISO/HEVC

  20. Duration : 2 h 8 min

  21. Bit rate : 8 135 kb/s

  22. Width : 1 920 pixels

  23. Height : 800 pixels

  24. Display aspect ratio : 2.40:1

  25. Frame rate mode : Constant

  26. Frame rate : 23.976 (24000/1001/53354) FPS

  27. Color space : YUV

  28. Chroma subsampling : 4:2:0

  29. Bit depth : 10 bits

  30. Bits/(Pixel*Frame) : 0.221

  31. Stream size : 7.29 GiB (84%)

  32. Title : @HDSky

  33. Writing library : x265 - H.265/HEVC codec

  34. Default : Yes

  35. Forced : No


  36. Audio

  37. ID : 2

  38. Format : DTS

  39. Format/Info : Digital Theater Systems

  40. Codec ID : A_DTS

  41. Duration : 2 h 8 min

  42. Bit rate mode : Constant

  43. Bit rate : 1 509 kb/s

  44. Channel(s) : 6 channels

  45. Channel layout : C L R Ls Rs LFE

  46. Sampling rate : 48.0 kHz

  47. Frame rate : 93.750 FPS (512 SPF)

  48. Bit depth : 24 bits

  49. Compression mode : Lossy

  50. Stream size : 1.35 GiB (16%)

  51. Title : Japanese

  52. Language : Japanese

  53. Default : Yes

  54. Forced : No


  55. Text #1

  56. ID : 3

  57. Format : PGS

  58. Muxing mode : zlib

  59. Codec ID : S_HDMV/PGS

  60. Codec ID/Info : Picture based subtitle format used on BDs/HD-DVDs

  61. Duration : 2 h 6 min

  62. Bit rate : 29.4 kb/s

  63. Count of elements : 2973

  64. Stream size : 26.7 MiB (0%)

  65. Title : CHS

  66. Language : Chinese

  67. Default : Yes

  68. Forced : No


  69. Text #2

  70. ID : 4

  71. Format : PGS

  72. Muxing mode : zlib

  73. Codec ID : S_HDMV/PGS

  74. Codec ID/Info : Picture based subtitle format used on BDs/HD-DVDs

  75. Duration : 2 h 6 min

  76. Bit rate : 30.8 kb/s

  77. Count of elements : 2973

  78. Stream size : 27.9 MiB (0%)

  79. Title : CHT

  80. Language : Chinese

  81. Default : No

  82. Forced : No


  83. Menu

  84. 00:00:00.000 : en:Chapter 01

  85. 00:05:39.506 : en:Chapter 02

  86. 00:10:23.164 : en:Chapter 03

  87. 00:17:57.702 : en:Chapter 04

  88. 00:27:31.233 : en:Chapter 05

  89. 00:44:44.390 : en:Chapter 06

  90. 00:54:55.209 : en:Chapter 07

  91. 01:05:13.785 : en:Chapter 08

  92. 01:14:14.950 : en:Chapter 09

  93. 01:26:07.704 : en:Chapter 10

  94. 01:36:07.220 : en:Chapter 11

  95. 01:44:09.952 : en:Chapter 12

  96. 01:54:35.952 : en:Chapter 13

  97. 02:01:09.262 : en:Chapter 14



文件下载


除非特别注明,本文『嫌疑人X的献身[中文字幕].Suspect.X.2008.1080p.BluRay.DTS.x265-10bit 8.68GB』来源于互联网机器人自动抓取,非本站原创。 浮游电影网不对本文拥有版权,如有侵犯,请联系邮箱:fuyouu#yandex.com[#换成@]投诉。我们会在15个工作日内删除。 但烦请转载时请标明出处:“本文转载于『浮游电影网』,原文地址:https://www.fuyouu.com/14470.html

评论吧骚年!

发表你的见解   

昵称*

E-mail*(建议输入,以便收到博主回复的提示邮件)

验证码*

您可以使用eMule或eMule Mod(Windows)、aMule(Win、Linux、Mac)等软件下载eD2k链接。。
eMule收藏集(.emulecollection)文件是您选中的所有链接的列表文件。eMule可以直接下载它们。
按住SHIFT键选择可以选中多个选择框。
可用文件名和大小选择器来选择文件。
文件名选择器帮您根据文件名称或后缀来选择文件。不分大小写。
符号使用:
和:空格( )、+
不包含:-
或:|
转义:一对英文引号("");
匹配开头:^
匹配结尾:$
例如:
选中所有名称中包含有“eMule”或“0.49c”字眼,但不包含有“exe”字眼的:emule|0.49c -exe
选中所有名称的开头是“eMule”,结尾是“0.49c”的:^emule 0.49c$
选中所有名称中带有“eMule 0.49c”的(必须是“eMule 0.49c”,中间没有别的字符,不能是“eMule fake 0.49c”),需要转义:"emule 0.49c"
大小选择器帮您根据文件大小选择文件。