当前位置: 首页 >> 海外电影 >> 爱情短片[中文字幕].A.Short.Film.About.Love.1988.BluRay.1080p.x265.10bit.FLAC.MNHD 7.89GB >> 正文

爱情短片[中文字幕].A.Short.Film.About.Love.1988.BluRay.1080p.x265.10bit.FLAC.MNHD 7.89GB

2021年09月21日 21:35:10     电影发布:来源于网络     电影分类:海外电影     评论(0)    

爱情短片[中文字幕].A.Short.Film.About.Love.1988.BluRay.1080p.x265.10bit.FLAC.MNHD 7.89GB 爱情片 剧情片 海外电影  第1张

◎译 名 爱情短片 / 情路长短调(台) / 关于爱情的短片 / 情诫 / A Short Film About Love

◎片 名 Krótki film o mi?o?ci

◎年 代 1988

◎产 地 波兰

◎类 别 剧情 / 爱情

◎语 言 波兰语 / 葡萄牙语

◎上映日期 1988-10-21(波兰)

◎IMDb链接 https://www.imdb.com/title/tt0095467/

◎豆瓣评分 8.8/10 (21975人评价)

◎豆瓣链接 https://movie.douban.com/subject/1294570/

◎片 长 86分钟

◎导 演 克日什托夫·基耶斯洛夫斯基 Krzysztof Kie?lowski (id:1054428)

◎编 剧 克日什托夫·基耶斯洛夫斯基 Krzysztof Kie?lowski (id:1054428)

克日什托夫·皮耶谢维奇 Krzysztof Piesiewicz (id:1041968)

◎演 员 格拉日娜·沙波沃夫斯卡 Grazyna Szapolowska (id:1151119)

奥拉夫·卢巴申科 Olaf Lubaszenko (id:1037560)

斯特凡尼亚·伊文斯卡 Stefania Iwinska (id:1111560)

比奥迪·玛查里卡 Piotr Machalica (id:1117218)

阿图尔·巴奇斯 Artur Barcis (id:1063189)

汉娜·霍伊纳茨卡 Hanna Chojnacka (id:1076116)

斯塔尼斯拉娃·加瓦里克 Stanislaw Gawlik (id:1095843)

托马斯兹·格拉多维斯基 Tomasz Gradowski (id:1099521)

拉法尔·伊穆布罗 Rafal Imbro (id:1109862)

杨·皮科辛斯基 Jan Piechocinski (id:1137407)

克雷兹耶托夫·考普佩尔斯基 Krzysztof Koperski (id:1363882)

杰罗斯拉娃·迈克勒斯卡 Jaroslawa Michalewska (id:1118346)

玛乌戈扎塔·罗日尼亚托夫斯卡 Malgorzata Rozniatowska (id:1147954)

额米莉亚·兹沃克斯卡 Emilia Ziólkowska (id:1161946)

泽贝纽·普瑞斯纳 Zbigniew Preisner (id:1045562)

◎标 签 波兰 / 爱情 / 1988 / 文艺 / 剧情 / 人性 / 经典 / 青春

◎简 介

影片讲述男孩汤马克(欧拉夫·鲁巴斯赞科 Olaf Lubaszenko饰)用天文望远镜偷窥住在对面公寓大厦的女人玛格达(格拉齐娜·扎波罗斯卡 Grazyna Szapolowska饰),不知不觉中迷恋上她的故事。她的一举一动都使汤马克魂牵梦绕,她的一颦一笑更是牵动他所有的神经。透过望远镜,汤马克看到玛格达和男人做爱的情景,迟迟不敢示爱。直到他看到她痛哭失意的时候,汤马克才鼓足勇气提出邀约。可玛格达拒绝了他的表白。汤马克纯真爱情的信念一下倒塌了,此时的他想用自杀来守住这份对爱情的忠贞。自杀没有成功,等他出院的时候,玛格达居然开始迷恋上了他。

影片是导演基耶斯洛夫斯基从他的《十戒》中第六个故事发展扩充而成的作品,并荣1988年圣塞巴斯蒂安国际电影节多项大奖。

  1. ##### MediaInfo ######

  2. General

  3. Unique ID : 289126340400432113791741171336838872315 (0xD983B529C8CCA0F4373AF01C14977CFB)

  4. Complete name : A.Sho[email protected]BBQDDQ.COM.mkv

  5. Format : Matroska

  6. Format version : Version 4

  7. File size : 7.89 GiB

  8. Duration : 1 h 28 min

  9. Overall bit rate mode : Variable

  10. Overall bit rate : 12.8 Mb/s

  11. Movie name : A Short Film About Love 1988 BluRay 1080p x265 10bit FLAC [email protected]

  12. Encoded date : UTC 2021-09-19 15:29:07

  13. Writing application : mkvmerge v56.1.0 ('My Friend') 64-bit

  14. Writing library : libebml v1.4.2 + libmatroska v1.6.4


  15. Video

  16. ID : 1

  17. Format : HEVC

  18. Format/Info : High Efficiency Video Coding

  19. Format profile : Main [email protected]@High

  20. Codec ID : V_MPEGH/ISO/HEVC

  21. Duration : 1 h 28 min

  22. Bit rate : 12.2 Mb/s

  23. Width : 1 836 pixels

  24. Height : 1 080 pixels

  25. Display aspect ratio : 1.700

  26. Frame rate mode : Constant

  27. Frame rate : 23.976 (24000/1001/53354) FPS

  28. Color space : YUV

  29. Chroma subsampling : 4:2:0

  30. Bit depth : 10 bits

  31. Bits/(Pixel*Frame) : 0.256

  32. Stream size : 7.50 GiB (95%)

  33. Writing library : x265 3.5+9-bf91444e0:[Windows][MSVC 1928][64 bit] 10bit

  34. Encoding settings : cpuid=533541111039 / frame-threads=3 / numa-pools=12 / wpp / pmode / no-pme / no-psnr / no-ssim / log-level=2 / input-csp=1 / input-res=1836x1080 / interlace=0 / total-frames=126744 / level-idc=0 / high-tier=1 / uhd-bd=0 / ref=6 / no-allow-non-conformance / no-repeat-headers / annexb / no-aud / no-eob / no-eos / no-hrd / info / hash=0 / no-temporal-layers / no-open-gop / min-keyint=1 / keyint=250 / gop-lookahead=0 / bframes=8 / b-adapt=2 / b-pyramid / bframe-bias=0 / rc-lookahead=100 / lookahead-slices=0 / NTMzNTQ=uuDQuD2mJt9fsCf / scenecut=40 / hist-scenecut=0 / radl=0 / no-splice / no-intra-refresh / ctu=32 / min-cu-size=8 / no-rect / no-amp / max-tu-size=32 / tu-inter-depth=4 / tu-intra-depth=4 / limit-tu=0 / rdoq-level=2 / dynamic-rd=0.00 / no-ssim-rd / signhide / no-tskip / nr-intra=0 / nr-inter=0 / no-constrained-intra / strong-intra-smoothing / max-merge=5 / limit-refs=0 / no-limit-modes / me=3 / subme=7 / merange=57 / temporal-mvp / no-frame-dup / no-hme / weightp / weightb / no-analyze-src-pics / deblock=-3:-3 / no-sao / no-sao-non-deblock / rd=4 / selective-sao=0 / no-early-skip / no-rskip / no-fast-intra / no-tskip-fast / no-cu-lossless / b-intra / no-splitrd-skip / rdpenalty=0 / psy-rd=1.50 / psy-rdoq=1.00 / no-rd-refine / no-lossless / cbqpoffs=-2 / crqpoffs=-2 / rc=crf / crf=21.5 / qcomp=0.60 / qpstep=4 / stats-write=0 / stats-read=0 / vbv-maxrate=160000 / vbv-bufsize=160000 / vbv-init=0.9 / min-vbv-fullness=50.0 / max-vbv-fullness=80.0 / crf-max=0.0 / crf-min=0.0 / ipratio=1.30 / pbratio=1.20 / aq-mode=3 / aq-strength=1.00 / no-cutree / zone-count=0 / no-strict-cbr / qg-size=8 / no-rc-grain / qpmax=69 / qpmin=0 / no-const-vbv / sar=0 / overscan=0 / videoformat=5 / range=0 / colorprim=1 / transfer=1 / colormatrix=1 / chromaloc=0 / display-window=0 / cll=0,0 / min-luma=0 / max-luma=1023 / log2-max-poc-lsb=8 / vui-timing-info / vui-hrd-info / slices=1 / no-opt-qp-pps / no-opt-ref-list-length-pps / no-multi-pass-opt-rps / scenecut-bias=0.05 / hist-threshold=0.03 / no-opt-cu-delta-qp / no-aq-motion / no-hdr10 / no-hdr10-opt / no-dhdr10-opt / no-idr-recovery-sei / analysis-reuse-level=0 / analysis-save-reuse-level=0 / analysis-load-reuse-level=0 / scale-factor=0 / refine-intra=0 / refine-inter=0 / refine-mv=1 / refine-ctu-distortion=0 / no-limit-sao / ctu-info=0 / no-lowpass-dct / refine-analysis-type=0 / copy-pic=1 / max-ausize-factor=1.0 / no-dynamic-refine / no-single-sei / no-hevc-aq / no-svt / no-field / qp-adaptation-range=1.00 / scenecut-aware-qp=0conformance-window-offsets / right=0 / bottom=0 / NTMzNTQ= / decoder-max-rate=0 / no-vbv-live-multi-pass

  35. Default : Yes

  36. Forced : No

  37. Color range : Limited

  38. Color primaries : BT.709

  39. Transfer characteristics : BT.709

  40. Matrix coefficients : BT.709


  41. Audio

  42. ID : 2

  43. Format : FLAC

  44. Format/Info : Free Lossless Audio Codec

  45. Codec ID : A_FLAC

  46. Duration : 1 h 28 min

  47. Bit rate mode : Variable

  48. Bit rate : 631 kb/s

  49. Channel(s) : 1 channel

  50. Channel layout : C

  51. Sampling rate : 48.0 kHz

  52. Frame rate : 11.719 FPS (4096 SPF)

  53. Bit depth : 24 bits

  54. Compression mode : Lossless

  55. Stream size : 397 MiB (5%)

  56. Title : FLAC Audio / 1.0 / 48 kHz / 631 kbps / 24-bit

  57. Writing library : libFLAC 1.2.1 (UTC 2007-09-17)

  58. Language : Polish

  59. Default : Yes

  60. Forced : No


  61. Text #1

  62. ID : 3

  63. Format : UTF-8

  64. Codec ID : S_TEXT/UTF8

  65. Codec ID/Info : UTF-8 Plain Text

  66. Duration : 1 h 24 min

  67. Bit rate : 14 b/s

  68. Count of elements : 419

  69. Stream size : 9.10 KiB (0%)

  70. Title : CHS

  71. Language : Chinese

  72. Default : Yes

  73. Forced : No


  74. Text #2

  75. ID : 4

  76. Format : PGS

  77. Muxing mode : zlib

  78. Codec ID : S_HDMV/PGS

  79. Codec ID/Info : Picture based subtitle format used on BDs/HD-DVDs

  80. Duration : 1 h 24 min

  81. Bit rate : 13.4 kb/s

  82. Count of elements : 812

  83. Stream size : 8.05 MiB (0%)

  84. Language : English

  85. Default : No

  86. Forced : No


  87. Menu

  88. 00:00:00.000 : Tomek's setup

  89. 00:07:17.687 : Phone calls to Magda

  90. 00:15:02.693 : His landlady's concern

  91. 00:21:52.728 : Milk delivery

  92. 00:29:40.862 : Tomek confesses

  93. 00:35:19.117 : "What do you want?"

  94. 00:47:12.580 : A date with Magda

  95. 00:53:37.923 : "That's all there is to love"

  96. 01:01:31.980 : Magda watches Tomek

  97. 01:11:57.605 : Waiting

  98. 01:18:55.481 : A moment together


文件下载


除非特别注明,本文『爱情短片[中文字幕].A.Short.Film.About.Love.1988.BluRay.1080p.x265.10bit.FLAC.MNHD 7.89GB』来源于互联网机器人自动抓取,非本站原创。 浮游电影网不对本文拥有版权,如有侵犯,请联系邮箱:fuyouu#yandex.com[#换成@]投诉。我们会在15个工作日内删除。 但烦请转载时请标明出处:“本文转载于『浮游电影网』,原文地址:https://www.fuyouu.com/14469.html

评论吧骚年!

发表你的见解   

昵称*

E-mail*(建议输入,以便收到博主回复的提示邮件)

验证码*

您可以使用eMule或eMule Mod(Windows)、aMule(Win、Linux、Mac)等软件下载eD2k链接。。
eMule收藏集(.emulecollection)文件是您选中的所有链接的列表文件。eMule可以直接下载它们。
按住SHIFT键选择可以选中多个选择框。
可用文件名和大小选择器来选择文件。
文件名选择器帮您根据文件名称或后缀来选择文件。不分大小写。
符号使用:
和:空格( )、+
不包含:-
或:|
转义:一对英文引号("");
匹配开头:^
匹配结尾:$
例如:
选中所有名称中包含有“eMule”或“0.49c”字眼,但不包含有“exe”字眼的:emule|0.49c -exe
选中所有名称的开头是“eMule”,结尾是“0.49c”的:^emule 0.49c$
选中所有名称中带有“eMule 0.49c”的(必须是“eMule 0.49c”,中间没有别的字符,不能是“eMule fake 0.49c”),需要转义:"emule 0.49c"
大小选择器帮您根据文件大小选择文件。