当前位置: 首页 >> 国产电影 >> 中国医生[国语配音/中文字幕].Chinese.Doctors.2021.2160p.WEB-DL.H265.DDP5.1.Atoms 14.08GB >> 正文

中国医生[国语配音/中文字幕].Chinese.Doctors.2021.2160p.WEB-DL.H265.DDP5.1.Atoms 14.08GB

2021年09月20日 11:29:37     电影发布:来源于网络     电影分类:国产电影     评论(0)    

中国医生[国语配音/中文字幕].Chinese.Doctors.2021.2160p.WEB DL.H265.DDP5.1.Atoms 14.08GB 灾难片 剧情片 国产电影  第1张

◎译 名 中国医生 / 中国·医生 / Chinese Doctors

◎年 代 2021

◎产 地 中国大陆

◎类 别 剧情 / 灾难

◎语 言 汉语普通话

◎上映日期 2021-07-09(中国大陆)

◎IMDb链接 https://www.imdb.com/title/tt13696296/

◎豆瓣评分 6.9/10 (159857人评价)

◎豆瓣链接 https://movie.douban.com/subject/35087699/

◎片 长 129分钟

◎导 演 刘伟强 Andrew Lau (id:1106979)

◎编 剧 于勇敢 Yonggan Yu (id:1419542)

◎演 员 张涵予 Hanyu Zhang (id:1274319)

袁泉 Quan Yuan (id:1010504)

朱亚文 Yawen Zhu (id:1312699)

李晨 Chen Li (id:1274252)

易烊千玺 Jackson Yee (id:1340022)

欧豪 Hao Ou (id:1337644)

周也 Ye Zhou (id:1412762)

冯文娟 Wenjuan Feng (id:1325753)

耿乐 Le Geng (id:1274576)

梁大维 Dawei Liang (id:1313231)

小爱 Hao Liu (id:1339968)

雅玫 Yamei Zhang (id:1328280)

杨祺如 Qiru Yang (id:1413270)

叶禾 He Ye (id:1369940)

蒋林燕 Linyan Jiang (id:1346433)

梅婷 Ting Mei (id:1047083)

李沁 Qin Li (id:1274844)

张天爱 Tian'ai Zhang (id:1353578)

宋佳 Jia Song (id:1042341)

俞飞鸿 Faye Yu (id:1014618)

倪虹洁 Hongjie Ni (id:1274649)

冯绍峰 Shaofeng Feng (id:1275721)

周笔畅 Bichang Zhou (id:1274425)

张颂文 Songwen Zhang (id:1314329)

张子枫 Zifeng Zhang (id:1274254)

佟丽娅 Liya Tong (id:1275756)

谷嘉诚 Jason Gu (id:1356456)

刘威 Wei Liu (id:1313885)

刘佳 Jia Liu (id:1312909)

赵宁宇 Ningyu Zhao (id:1275776)

王挺 Ting Wang (id:1314471)

余皑磊 Ailei Yu (id:1313809)

黄璐 Lu Huang (id:1276144)

印小天 Xiaotian Yin (id:1274888)

张嘉倪 Jiani Zhang (id:1314636)

释小龙 Siu Lung Sik (id:1014738)

高戈 Ge Gao (id:1413271)

刘琳 Lin Liu (id:1116446)

来喜 Laixi (id:1321645)

万国鹏 Guopeng Wan (id:1350013)

王昭 Zhao Wang (id:1350000)

石昊正 Haozheng Shi (id:1352902)

于冬 Dong Yu (id:1317865)

刘伟强 Andrew Lau (id:1106979)

李锦文 Peggy Lee Kam-Man (id:1321355)

蒋德富 Defu Jiang (id:1423660)

曲吉小江 Xiaojiang Quji (id:1423706)

◎标 签 抗疫 / 真实事件改编 / 疫情 / 温情 / 中国大陆 / 人性 / 2021 / 社会

◎简 介

电影根据新冠肺炎疫情防控斗争的真实事件改编,以武汉市金银潭医院为核心故事背景,同时兼顾武汉同济医院、武汉市肺科医院、武汉协和医院、武汉大学人民医院(湖北省人民医院)、火神山医院、方舱医院等兄弟单位,以武汉医护人员、全国各省市援鄂医疗队为人物原型,全景式记录波澜壮阔、艰苦卓绝的抗疫斗争。

  1. ##### MediaInfo ######

  2. General

  3. Unique ID : 57710434697562663822347723098903224631 (0x2B6AA01C197762FDD2AE538B93CB2137)

  4. Complete name : [email protected].COM.mkv

  5. Format : Matroska

  6. Format version : Version 4

  7. File size : 14.1 GiB

  8. Duration : 2 h 8 min

  9. Overall bit rate : 15.7 Mb/s

  10. Encoded date : UTC 2021-09-19 05:47:40

  11. Writing application : mkvmerge v50.0.0 ('Awakenings') 64-bit

  12. Writing library : libebml v1.4.0 + libmatroska v1.6.2


  13. Video

  14. ID : 1

  15. Format : HEVC

  16. Format/Info : High Efficiency Video Coding

  17. Format profile : [email protected]@Main

  18. Codec ID : V_MPEGH/ISO/HEVC

  19. Duration : 2 h 8 min

  20. Bit rate : 15.1 Mb/s

  21. Width : 3 840 pixels

  22. Height : 1 608 pixels

  23. Display aspect ratio : 2.40:1

  24. Frame rate mode : Constant

  25. Frame rate : 25.000 FPS

  26. Color space : YUV

  27. Chroma subsampling : 4:2:0

  28. Bit depth : 8 bits

  29. Bits/(Pixel*Frame) : 0.098

  30. Stream size : 13.5 GiB (96%)

  31. Language : Chinese

  32. Default : Yes

  33. Forced : No


  34. Audio #1

  35. ID : 2

  36. Format : E-AC-3 JOC

  37. Format/Info : Enhanced AC-3 with Joint Object Coding

  38. Commercial name : Dolby Digital Plus with Dolby Atmos

  39. Codec ID : A_EAC3

  40. Duration : 2 h 8 min

  41. Bit rate mode : Constant

  42. Bit rate : 448 kb/s

  43. Channel(s) : 6 channels

  44. Channel layout : L R C LFE Ls Rs

  45. Sampling rate : 48.0 kHz

  46. Frame rate : 31.250 FPS (1536 SPF)

  47. Compression mode : Lossy

  48. Stream size : 410 MiB (3%)

  49. Title : DDP 5.1 Atoms

  50. Language : Chinese

  51. Service kind : Complete Main

  52. Default : Yes

  53. Forced : No

  54. Complexity index : 12

  55. Number of dynamic objects : 11

  56. Bed channel count : 1 channel

  57. Bed channel configuration : LFE


  58. Audio #2

  59. ID : 3

  60. Format : AAC LC

  61. Format/Info : Advanced Audio Codec Low Complexity

  62. Codec ID : A_AAC-2

  63. Duration : 2 h 8 min

  64. Bit rate : 192 kb/s

  65. Channel(s) : 2 channels

  66. Channel layout : L R

  67. Sampling rate : 44.1 kHz

  68. Frame rate : 43.066 FPS (1024 SPF)

  69. Compression mode : Lossy

  70. Stream size : 174 MiB (1%)

  71. Title : AAC 2.0

  72. Language : Chinese

  73. Default : No

  74. Forced : No


文件下载


除非特别注明,本文『中国医生[国语配音/中文字幕].Chinese.Doctors.2021.2160p.WEB-DL.H265.DDP5.1.Atoms 14.08GB』来源于互联网机器人自动抓取,非本站原创。 浮游电影网不对本文拥有版权,如有侵犯,请联系邮箱:fuyouu#yandex.com[#换成@]投诉。我们会在15个工作日内删除。 但烦请转载时请标明出处:“本文转载于『浮游电影网』,原文地址:https://www.fuyouu.com/14464.html

评论吧骚年!

发表你的见解   

昵称*

E-mail*(建议输入,以便收到博主回复的提示邮件)

验证码*

您可以使用eMule或eMule Mod(Windows)、aMule(Win、Linux、Mac)等软件下载eD2k链接。。
eMule收藏集(.emulecollection)文件是您选中的所有链接的列表文件。eMule可以直接下载它们。
按住SHIFT键选择可以选中多个选择框。
可用文件名和大小选择器来选择文件。
文件名选择器帮您根据文件名称或后缀来选择文件。不分大小写。
符号使用:
和:空格( )、+
不包含:-
或:|
转义:一对英文引号("");
匹配开头:^
匹配结尾:$
例如:
选中所有名称中包含有“eMule”或“0.49c”字眼,但不包含有“exe”字眼的:emule|0.49c -exe
选中所有名称的开头是“eMule”,结尾是“0.49c”的:^emule 0.49c$
选中所有名称中带有“eMule 0.49c”的(必须是“eMule 0.49c”,中间没有别的字符,不能是“eMule fake 0.49c”),需要转义:"emule 0.49c"
大小选择器帮您根据文件大小选择文件。