当前位置: 首页 >> 国产电影 >> 功夫联盟[国粤语配音/中文字幕].Kung.Fu.League.2018.1080p.BluRay.x265.10bit.DTS.2Audio 7.19GB >> 正文

功夫联盟[国粤语配音/中文字幕].Kung.Fu.League.2018.1080p.BluRay.x265.10bit.DTS.2Audio 7.19GB

2021年09月20日 11:28:27     电影发布:来源于网络     电影分类:国产电影     评论(0)    

功夫联盟[国粤语配音/中文字幕].Kung.Fu.League.2018.1080p.BluRay.x265.10bit.DTS.2Audio 7.19GB 动作片 剧情片 国产电影  第1张

◎译 名 功夫联盟 / 功夫大联盟 / Kung Fu League

◎年 代 2018

◎产 地 中国大陆

◎类 别 剧情 / 动作

◎语 言 汉语普通话

◎上映日期 2018-10-26(中国大陆)

◎IMDb链接 https://www.imdb.com/title/tt9204408/

◎豆瓣评分 3.2/10 (7753人评价)

◎豆瓣链接 https://movie.douban.com/subject/27008394/

◎片 长 102分钟

◎导 演 刘镇伟 Jeffrey Lau (id:1274431)

◎编 剧 黄剑虹 (id:1448834)

刘镇伟 Jeffrey Lau (id:1274431)

◎演 员 赵文卓 Man Cheuk Chiu (id:1000526)

安志杰 Andy On (id:1045364)

陈国坤 Kwok-Kwan Chan (id:1229775)

杜宇航 Yu-Hang To (id:1315999)

书亚信 Ashin Shu (id:1360986)

麦迪娜 Vicky (id:1317420)

张子文 Ziwen Zhang (id:1336394)

何沄伟 Yunwei He (id:1313982)

飞儿 Feier (id:1322812)

苑琼丹 King-Tan Yuen (id:1274445)

梁家仁 Ka-Yan Leung (id:1008125)

梁小龙 Siu-Lung Leung (id:1274267)

殷春树 Chunshu Yin (id:1402669)

李建平 Chien-Ping Li (id:1378979)

阿鲲 Roc Chen (id:1376620)

王改改 (id:1429473)

◎标 签 动作 / 喜剧 / 无厘头 / 穿越 / 脑残三观 / 2018 / 中国 / 武侠

◎简 介

年轻漫画家费英雄,受到老板张鹏的打压,郁郁不得志。而他与张鹏却同时暗恋着公司女同事保儿。

机缘巧合之下,他正在执笔的新漫画《功夫联盟》中的四大武学宗师——黄师傅、霍大侠、陈阿真以及叶姓神秘人受到费英雄的召唤穿越时空来到了现代。

经历诸多磨难和命悬一线的对抗后,宗师们终于帮助英雄完成了梦想,而他们也都回到了属于自己的时代。

  1. ##### MediaInfo ######

  2. General

  3. Unique ID : 321263983198770085105502896823269444752 (0xF1B131499E103AF47ED8630D12C9CC90)

  4. Complete name : [email protected]DDQ.COM.mkv

  5. Format : Matroska

  6. Format version : Version 4

  7. File size : 7.19 GiB

  8. Duration : 1 h 42 min

  9. Overall bit rate : 10.1 Mb/s

  10. Encoded date : UTC 2021-09-19 03:51:47

  11. Writing application : mkvmerge v56.1.0 ('My Friend') 64-bit

  12. Writing library : libebml v1.4.2 + libmatroska v1.6.4


  13. Video

  14. ID : 1

  15. Format : HEVC

  16. Format/Info : High Efficiency Video Coding

  17. Format profile : Main [email protected]@Main

  18. Codec ID : V_MPEGH/ISO/HEVC

  19. Duration : 1 h 42 min

  20. Bit rate : 7 894 kb/s

  21. Width : 1 920 pixels

  22. Height : 804 pixels

  23. Display aspect ratio : 2.40:1

  24. Frame rate mode : Constant

  25. Frame rate : 23.976 (24000/1001/53354) FPS

  26. Color space : YUV

  27. Chroma subsampling : 4:2:0

  28. Bit depth : 10 bits

  29. Bits/(Pixel*Frame) : 0.213

  30. Stream size : 5.63 GiB (78%)

  31. Writing library : x265 3.5+2-g2b25c9ba0+45:[Windows][GCC 10.2.0][64 bit] Yuuki 10bit+8bit+12bit

  32. Encoding settings : rc=crf / crf=16.5000 / qcomp=0.70 / qpstep=4 / stats-write=0 / stats-read=0 / no-lossless / no-cu-lossless / aq-mode=3 / aq-strength=0.90 / cbqpoffs=0 / crqpoffs=0 / ipratio=1.40 / pbratio=1.30 / psy-rd=2.00 / psy-rdoq=0.00 / deblock=0:0 / ref=6 / limit-refs=1 / no-limit-modes / bframes=7 / b-adapt=2 / bframe-bias=0 / b-pyramid / b-intra / weightp / weightb / min-keyint=24 / max-keyint=240 / rc-lookahead=24 / gop-lookahead=0 / NTMzNTQ=uuDQuD2mJt9fsCf / scenecut=40 / hist-scenecut=0 / radl=0 / max-cu-size=64 / min-cu-size=8 / me=3 / subme=7 / merange=48 / rdoq-level=0 / rd=4 / rdpenalty=0 / dynamic-rd=0.00 / no-rd-refine / ----- / cutree / sao / no-rect / no-amp / no-open-gop / wpp / no-pmode / no-pme / no-psnr / no-ssim / nr-intra=0 / nr-inter=0 / no-constrained-intra / no-strong-intra-smoothing / max-tu-size=32 / tu-inter-depth=1 / tu-intra-depth=1 / limit-tu=0 / qg-size=32 / qpmax=69 / qpmin=0 / ----- / cpuid=533541111039 / frame-threads=4 / numa-pools=+ / log-level=2 / input-csp=1 / input-res=1920x804 / interlace=0 / level-idc=0 / high-tier=1 / uhd-bd=0 / no-allow-non-conformance / no-repeat-headers / aud / no-hrd / info / hash=0 / no-temporal-layers / lookahead-slices=0 / no-splice / no-intra-refresh / no-ssim-rd / signhide / no-tskip / max-merge=3 / temporal-mvp / no-frame-dup / no-hme / no-analyze-src-pics / no-sao-non-deblock / selective-sao=4 / early-skip / rskip / no-fast-intra / no-tskip-fast / no-splitrd-skip / zone-count=1 / zones: / start-frame=136900 / end-frame=146911 / qp=20 / no-strict-cbr / no-rc-grain / no-const-vbv / sar=0 / overscan=0 / videoformat=5 / range=0 / colorprim=2 / transfer=2 / colormatrix=2 / chromaloc=0 / display-window=0 / cll=0,0 / min-luma=0 / max-luma=1023 / log2-max-poc-lsb=8 / vui-timing-info / vui-hrd-info / slices=1 / no-opt-qp-pps / no-opt-ref-list-length-pps / no-multi-pass-opt-rps / scenecut-bias=0.05 / hist-threshold=0.03 / no-opt-cu-delta-qp / no-aq-motion / no-hdr10 / no-hdr10-opt / no-dhdr10-opt / no-idr-recovery-sei / analysis-reuse-level=0 / analysis-save-reuse-level=0 / analysis-load-reuse-level=0 / scale-factor=0 / refine-intra=0 / refine-inter=0 / refine-mv=1 / refine-ctu-distortion=0 / no-limit-sao / ctu-info=0 / no-lowpass-dct / refine-analysis-type=0 / copy-pic=1 / max-ausize-factor=1.0 / no-dynamic-refine / no-single-sei / no-hevc-aq / no-svt / no-field / qp-adaptation-range=1.00 / scenecut-aware-qp=0conformance-window-offsets / right=0 / bottom=0 / NTMzNTQ= / decoder-max-rate=0 / no-vbv-live-multi-pass

  33. Default : Yes

  34. Forced : No


  35. Audio #1

  36. ID : 2

  37. Format : DTS

  38. Format/Info : Digital Theater Systems

  39. Codec ID : A_DTS

  40. Duration : 1 h 42 min

  41. Bit rate mode : Constant

  42. Bit rate : 1 510 kb/s

  43. Channel(s) : 6 channels

  44. Channel layout : C L R Ls Rs LFE

  45. Sampling rate : 48.0 kHz

  46. Frame rate : 93.750 FPS (512 SPF)

  47. Bit depth : 24 bits

  48. Compression mode : Lossy

  49. Stream size : 1.08 GiB (15%)

  50. Title : Mandarin

  51. Language : Chinese

  52. Default : Yes

  53. Forced : No


  54. Audio #2

  55. ID : 3

  56. ID in the original source medium : 4353 (0x1101)

  57. Format : AC-3

  58. Format/Info : Audio Coding 3

  59. Commercial name : Dolby Digital

  60. Codec ID : A_AC3

  61. Duration : 1 h 42 min

  62. Bit rate mode : Constant

  63. Bit rate : 640 kb/s

  64. Channel(s) : 6 channels

  65. Channel layout : L R C LFE Ls Rs

  66. Sampling rate : 48.0 kHz

  67. Frame rate : 31.250 FPS (1536 SPF)

  68. Compression mode : Lossy

  69. Stream size : 467 MiB (6%)

  70. Title : Cantonese

  71. Language : Chinese

  72. Service kind : Complete Main

  73. Default : No

  74. Forced : No

  75. Original source medium : Blu-ray


  76. Text #1

  77. ID : 4

  78. ID in the original source medium : 4609 (0x1201)

  79. Format : PGS

  80. Muxing mode : zlib

  81. Codec ID : S_HDMV/PGS

  82. Codec ID/Info : Picture based subtitle format used on BDs/HD-DVDs

  83. Duration : 1 h 36 min

  84. Bit rate : 34.3 kb/s

  85. Count of elements : 2658

  86. Stream size : 23.7 MiB (0%)

  87. Title : chs

  88. Language : Chinese

  89. Default : Yes

  90. Forced : No

  91. Original source medium : Blu-ray


  92. Text #2

  93. ID : 5

  94. ID in the original source medium : 4608 (0x1200)

  95. Format : PGS

  96. Muxing mode : zlib

  97. Codec ID : S_HDMV/PGS

  98. Codec ID/Info : Picture based subtitle format used on BDs/HD-DVDs

  99. Duration : 1 h 37 min

  100. Bit rate : 35.2 kb/s

  101. Count of elements : 2673

  102. Stream size : 24.4 MiB (0%)

  103. Title : cht

  104. Language : Chinese

  105. Default : No

  106. Forced : No

  107. Original source medium : Blu-ray


  108. Text #3

  109. ID : 6

  110. ID in the original source medium : 4610 (0x1202)

  111. Format : PGS

  112. Muxing mode : zlib

  113. Codec ID : S_HDMV/PGS

  114. Codec ID/Info : Picture based subtitle format used on BDs/HD-DVDs

  115. Duration : 1 h 36 min

  116. Bit rate : 43.5 kb/s

  117. Count of elements : 2671

  118. Stream size : 30.1 MiB (0%)

  119. Title : eng

  120. Language : English

  121. Default : No

  122. Forced : No

  123. Original source medium : Blu-ray


  124. Menu

  125. 00:00:00.000 : 第 01 章

  126. 00:09:00.915 : 第 02 章

  127. 00:17:11.405 : 第 03 章

  128. 00:26:02.978 : 第 04 章

  129. 00:33:54.866 : 第 05 章

  130. 00:43:12.423 : 第 06 章

  131. 00:53:01.511 : 第 07 章

  132. 00:58:28.087 : 第 08 章

  133. 01:07:29.253 : 第 09 章

  134. 01:16:17.531 : 第 10 章

  135. 01:24:27.062 : 第 11 章

  136. 01:33:39.864 : 第 12 章


文件下载


除非特别注明,本文『功夫联盟[国粤语配音/中文字幕].Kung.Fu.League.2018.1080p.BluRay.x265.10bit.DTS.2Audio 7.19GB』来源于互联网机器人自动抓取,非本站原创。 浮游电影网不对本文拥有版权,如有侵犯,请联系邮箱:fuyouu#yandex.com[#换成@]投诉。我们会在15个工作日内删除。 但烦请转载时请标明出处:“本文转载于『浮游电影网』,原文地址:https://www.fuyouu.com/14463.html

评论吧骚年!

发表你的见解   

昵称*

E-mail*(建议输入,以便收到博主回复的提示邮件)

验证码*

您可以使用eMule或eMule Mod(Windows)、aMule(Win、Linux、Mac)等软件下载eD2k链接。。
eMule收藏集(.emulecollection)文件是您选中的所有链接的列表文件。eMule可以直接下载它们。
按住SHIFT键选择可以选中多个选择框。
可用文件名和大小选择器来选择文件。
文件名选择器帮您根据文件名称或后缀来选择文件。不分大小写。
符号使用:
和:空格( )、+
不包含:-
或:|
转义:一对英文引号("");
匹配开头:^
匹配结尾:$
例如:
选中所有名称中包含有“eMule”或“0.49c”字眼,但不包含有“exe”字眼的:emule|0.49c -exe
选中所有名称的开头是“eMule”,结尾是“0.49c”的:^emule 0.49c$
选中所有名称中带有“eMule 0.49c”的(必须是“eMule 0.49c”,中间没有别的字符,不能是“eMule fake 0.49c”),需要转义:"emule 0.49c"
大小选择器帮您根据文件大小选择文件。