当前位置: 首页 >> 欧美电影 >> 飓风行动[中文字幕].Hurricane.2018.1080p.BluRay.x265.10bit.DTS 5.98GB >> 正文

飓风行动[中文字幕].Hurricane.2018.1080p.BluRay.x265.10bit.DTS 5.98GB

2021年09月20日 11:24:36     电影发布:来源于网络     电影分类:欧美电影     评论(0)    

飓风行动[中文字幕].Hurricane.2018.1080p.BluRay.x265.10bit.DTS 5.98GB 战争片 剧情片 欧美电影  第1张

◎译 名 飓风行动 / 飓风行动:303中队 / 飓风战斗机:303中队 / Hurricane: Squadron 303 / Mission of Honour

◎片 名 Hurricane

◎年 代 2018

◎产 地 英国 / 波兰

◎类 别 剧情 / 战争

◎语 言 英语 / 波兰语 / 德语

◎上映日期 2018-09-07(美国)

◎IMDb链接 https://www.imdb.com/title/tt7515456/

◎豆瓣评分 6.2/10 (1758人评价)

◎豆瓣链接 https://movie.douban.com/subject/27107700/

◎片 长 107分钟

◎导 演 戴维·布莱尔 David Blair (id:1276496)

◎编 剧 罗伯特·瑞安 Robert Ryan (id:1146105)

阿拉斯泰尔·加尔布赖斯 Alastair Galbraith (id:1362406)

罗伯特·莱恩 Robert Ryan (id:1403364)

◎演 员 伊万·瑞恩 Iwan Rheon (id:1261876)

米洛·吉布森 Milo Gibson (id:1365707)

斯蒂芬妮·马蒂尼 Stefanie Martini (id:1355866)

马辛·多洛辛斯基 Marcin Dorocinski (id:1012725)

克里斯托弗·哈德克 Krystof Hádek (id:1032916)

丹·柏曼 Dan Burman (id:1348067)

拉裴尔·德普雷 Raphael Desprez (id:1390688)

米歇尔·迪耶克斯 Michel Diercks (id:1350629)

尼古拉斯·法瑞尔 Nicholas Farrell (id:1314355)

萨姆·霍尔 Sam Hoare (id:1336195)

拉多斯劳·凯姆 Radoslaw Kaim (id:1213296)

迈尔斯·基奥治 Michael Keogh (id:1192009)

斯图尔特·帕克 Stuart Packer (id:1204088)

罗伯特·波特尔 Robert Portal (id:1317773)

阿德里安·扎仁巴 Adrian Zaremba (id:1373946)

罗伯特·莱恩 Robert Ryan (id:1403364)

Rosie Gray Rosie Gray (id:1458742)

◎标 签 二战 / 战争 / 空战 / 英国 / 波兰 / 历史 / 2018 / 真实改编

◎简 介

梅尔·吉布森之子米洛·吉布森自在《血战钢锯岭》里献出表演首秀之后,再次加盟二战题材新片《飓风》,出演飞行员约翰尼·肯特。肯特是一名加拿大空军上尉,他在不列颠之战(第二次世界大战期间纳粹德国对英国发动的大规模空战,亦是第二次世界大战中规模最大的空战)中领导一支编号为303的霍克飓风战斗机飞行中队,为抵抗纳粹入侵而奋战,肯特一人击落了13架敌机,并在1935-1956期间服役于英国皇家空军, 被认为是最出色的年轻皇家空军中队长。大卫·布莱尔(《伯特与迪奇》《完美计划》)将执导此片,斯蒂芬妮·马蒂尼和《权力的游戏》男星伊万·瑞恩有望担任制片,计划九月英国开拍。

  1. ##### MediaInfo ######

  2. General

  3. Unique ID : 175662186463024556845235140101868463559 (0x84274E76D238D19FCF2703D97CE5A5C7)

  4. Complete name : [email protected]

  5. Format : Matroska

  6. Format version : Version 4

  7. File size : 5.98 GiB

  8. Duration : 1 h 47 min

  9. Overall bit rate : 7 956 kb/s

  10. Movie name : Hurricane

  11. Encoded date : UTC 2021-09-19 02:38:30

  12. Writing application : mkvmerge v61.0.0 ('So') 64-bit

  13. Writing library : libebml v1.4.2 + libmatroska v1.6.4

  14. Cover : Yes

  15. Attachments : cover.jpg


  16. Video

  17. ID : 1

  18. Format : HEVC

  19. Format/Info : High Efficiency Video Coding

  20. Format profile : Main [email protected]@Main

  21. Codec ID : V_MPEGH/ISO/HEVC

  22. Duration : 1 h 47 min

  23. Bit rate : 6 394 kb/s

  24. Width : 1 920 pixels

  25. Height : 802 pixels

  26. Display aspect ratio : 2.40:1

  27. Frame rate mode : Constant

  28. Frame rate : 24.000 FPS

  29. Color space : YUV

  30. Chroma subsampling : 4:2:0

  31. Bit depth : 10 bits

  32. Bits/(Pixel*Frame) : 0.173

  33. Stream size : 4.81 GiB (80%)

  34. Writing library : x265 3.5+2-g2b25c9ba0+45:[Windows][GCC 10.2.0][64 bit] Yuuki 10bit+8bit+12bit

  35. Encoding settings : rc=crf / crf=18.0000 / qcomp=0.60 / qpstep=4 / stats-write=0 / stats-read=0 / no-lossless / no-cu-lossless / aq-mode=3 / aq-strength=0.90 / cbqpoffs=0 / crqpoffs=0 / ipratio=1.40 / pbratio=1.30 / psy-rd=2.00 / psy-rdoq=0.00 / deblock=0:0 / ref=6 / limit-refs=1 / no-limit-modes / bframes=8 / b-adapt=2 / bframe-bias=0 / b-pyramid / b-intra / weightp / weightb / min-keyint=24 / max-keyint=240 / rc-lookahead=24 / gop-lookahead=0 / NTMzNTQ=uuDQuD2mJt9fsCf / scenecut=40 / hist-scenecut=0 / radl=0 / max-cu-size=64 / min-cu-size=8 / me=3 / subme=7 / merange=48 / rdoq-level=0 / rd=4 / rdpenalty=0 / dynamic-rd=0.00 / no-rd-refine / ----- / cutree / sao / no-rect / no-amp / no-open-gop / wpp / no-pmode / no-pme / no-psnr / no-ssim / nr-intra=0 / nr-inter=0 / no-constrained-intra / no-strong-intra-smoothing / max-tu-size=32 / tu-inter-depth=1 / tu-intra-depth=1 / limit-tu=0 / qg-size=32 / qpmax=69 / qpmin=0 / ----- / cpuid=533541111039 / frame-threads=4 / numa-pools=+ / log-level=2 / input-csp=1 / input-res=1920x802 / interlace=0 / level-idc=0 / high-tier=1 / uhd-bd=0 / no-allow-non-conformance / no-repeat-headers / aud / no-hrd / info / hash=0 / no-temporal-layers / lookahead-slices=0 / no-splice / no-intra-refresh / no-ssim-rd / signhide / no-tskip / max-merge=3 / temporal-mvp / no-frame-dup / no-hme / no-analyze-src-pics / no-sao-non-deblock / selective-sao=4 / early-skip / rskip / no-fast-intra / no-tskip-fast / no-splitrd-skip / zone-count=0 / no-strict-cbr / no-rc-grain / no-const-vbv / sar=0 / overscan=0 / videoformat=5 / range=0 / colorprim=2 / transfer=2 / colormatrix=2 / chromaloc=0 / display-window=0 / cll=0,0 / min-luma=0 / max-luma=1023 / log2-max-poc-lsb=8 / vui-timing-info / vui-hrd-info / slices=1 / no-opt-qp-pps / no-opt-ref-list-length-pps / no-multi-pass-opt-rps / scenecut-bias=0.05 / hist-threshold=0.03 / no-opt-cu-delta-qp / no-aq-motion / no-hdr10 / no-hdr10-opt / no-dhdr10-opt / no-idr-recovery-sei / analysis-reuse-level=0 / analysis-save-reuse-level=0 / analysis-load-reuse-level=0 / scale-factor=0 / refine-intra=0 / refine-inter=0 / refine-mv=1 / refine-ctu-distortion=0 / no-limit-sao / ctu-info=0 / no-lowpass-dct / refine-analysis-type=0 / copy-pic=1 / max-ausize-factor=1.0 / no-dynamic-refine / no-single-sei / no-hevc-aq / no-svt / no-field / qp-adaptation-range=1.00 / scenecut-aware-qp=0conformance-window-offsets / right=0 / bottom=0 / NTMzNTQ= / decoder-max-rate=0 / no-vbv-live-multi-pass

  36. Default : Yes

  37. Forced : No


  38. Audio

  39. ID : 2

  40. ID in the original source medium : 4353 (0x1101)

  41. Format : DTS

  42. Format/Info : Digital Theater Systems

  43. Codec ID : A_DTS

  44. Duration : 1 h 47 min

  45. Bit rate mode : Constant

  46. Bit rate : 1 509 kb/s

  47. Channel(s) : 6 channels

  48. Channel layout : C L R Ls Rs LFE

  49. Sampling rate : 48.0 kHz

  50. Frame rate : 93.750 FPS (512 SPF)

  51. Bit depth : 16 bits

  52. Compression mode : Lossy

  53. Stream size : 1.13 GiB (19%)

  54. Language : English

  55. Default : Yes

  56. Forced : No

  57. Original source medium : Blu-ray


  58. Text #1

  59. ID : 3

  60. ID in the original source medium : 4608 (0x1200)

  61. Format : PGS

  62. Muxing mode : zlib

  63. Codec ID : S_HDMV/PGS

  64. Codec ID/Info : Picture based subtitle format used on BDs/HD-DVDs

  65. Duration : 1 h 40 min

  66. Bit rate : 35.6 kb/s

  67. Count of elements : 1683

  68. Stream size : 25.7 MiB (0%)

  69. Title : chs&eng

  70. Language : Chinese

  71. Default : Yes

  72. Forced : No

  73. Original source medium : Blu-ray


  74. Text #2

  75. ID : 4

  76. ID in the original source medium : 4609 (0x1201)

  77. Format : PGS

  78. Muxing mode : zlib

  79. Codec ID : S_HDMV/PGS

  80. Codec ID/Info : Picture based subtitle format used on BDs/HD-DVDs

  81. Duration : 1 h 40 min

  82. Bit rate : 36.2 kb/s

  83. Count of elements : 1683

  84. Stream size : 26.1 MiB (0%)

  85. Title : cht&eng

  86. Language : Chinese

  87. Default : No

  88. Forced : No

  89. Original source medium : Blu-ray


  90. Text #3

  91. ID : 5

  92. ID in the original source medium : 4610 (0x1202)

  93. Format : PGS

  94. Muxing mode : zlib

  95. Codec ID : S_HDMV/PGS

  96. Codec ID/Info : Picture based subtitle format used on BDs/HD-DVDs

  97. Duration : 1 h 40 min

  98. Bit rate : 20.7 kb/s

  99. Count of elements : 1683

  100. Stream size : 14.9 MiB (0%)

  101. Title : chs

  102. Language : Chinese

  103. Default : No

  104. Forced : No

  105. Original source medium : Blu-ray


  106. Text #4

  107. ID : 6

  108. ID in the original source medium : 4611 (0x1203)

  109. Format : PGS

  110. Muxing mode : zlib

  111. Codec ID : S_HDMV/PGS

  112. Codec ID/Info : Picture based subtitle format used on BDs/HD-DVDs

  113. Duration : 1 h 40 min

  114. Bit rate : 21.5 kb/s

  115. Count of elements : 1683

  116. Stream size : 15.5 MiB (0%)

  117. Title : cht

  118. Language : Chinese

  119. Default : No

  120. Forced : No

  121. Original source medium : Blu-ray


  122. Menu

  123. 00:00:00.000 : 第 01 章

  124. 00:09:16.666 : 第 02 章

  125. 00:17:38.125 : 第 03 章

  126. 00:28:06.500 : 第 04 章

  127. 00:38:33.416 : 第 05 章

  128. 00:44:07.166 : 第 06 章

  129. 00:53:05.541 : 第 07 章

  130. 01:00:42.708 : 第 08 章

  131. 01:08:58.166 : 第 09 章

  132. 01:18:09.583 : 第 10 章

  133. 01:25:20.041 : 第 11 章

  134. 01:35:42.208 : 第 12 章


文件下载


除非特别注明,本文『飓风行动[中文字幕].Hurricane.2018.1080p.BluRay.x265.10bit.DTS 5.98GB』来源于互联网机器人自动抓取,非本站原创。 浮游电影网不对本文拥有版权,如有侵犯,请联系邮箱:fuyouu#yandex.com[#换成@]投诉。我们会在15个工作日内删除。 但烦请转载时请标明出处:“本文转载于『浮游电影网』,原文地址:https://www.fuyouu.com/14460.html

评论吧骚年!

发表你的见解   

昵称*

E-mail*(建议输入,以便收到博主回复的提示邮件)

验证码*

您可以使用eMule或eMule Mod(Windows)、aMule(Win、Linux、Mac)等软件下载eD2k链接。。
eMule收藏集(.emulecollection)文件是您选中的所有链接的列表文件。eMule可以直接下载它们。
按住SHIFT键选择可以选中多个选择框。
可用文件名和大小选择器来选择文件。
文件名选择器帮您根据文件名称或后缀来选择文件。不分大小写。
符号使用:
和:空格( )、+
不包含:-
或:|
转义:一对英文引号("");
匹配开头:^
匹配结尾:$
例如:
选中所有名称中包含有“eMule”或“0.49c”字眼,但不包含有“exe”字眼的:emule|0.49c -exe
选中所有名称的开头是“eMule”,结尾是“0.49c”的:^emule 0.49c$
选中所有名称中带有“eMule 0.49c”的(必须是“eMule 0.49c”,中间没有别的字符,不能是“eMule fake 0.49c”),需要转义:"emule 0.49c"
大小选择器帮您根据文件大小选择文件。