当前位置: 首页 >> 日韩电视剧 >> [鱿鱼游戏][全9集][韩英双语内封简繁多国软字幕.无水印][WEB-MKV][1080P][AGLET][网飞版][BT下载] >> 正文

[鱿鱼游戏][全9集][韩英双语内封简繁多国软字幕.无水印][WEB-MKV][1080P][AGLET][网飞版][BT下载]

2021年09月20日 08:53:35     电影发布:来源于网络     电影分类:日韩电视剧     评论(0)    

[鱿鱼游戏][全9集][韩英双语内封简繁多国软字幕.无水印][WEB MKV][1080P][AGLET][网飞版][BT下载] 悬疑片 惊悚片 日韩电视剧  第1张


◎译  名 鱿鱼游戏 / Round Six / Squid Game / 第六轮

◎片  名 오징어 게임

◎年  代 2021

◎产  地 韩国

◎类  别 悬疑 / 惊悚

◎语  言 韩语

◎上映日期 2021-09-17(韩国)

◎IMDb评分 0/10 from 0 users

◎IMDb链接 https://www.imdb.com/title/tt10919420

◎豆瓣评分 0/10 from 0 users

◎豆瓣链接 https://movie.douban.com/subject/34812928

◎集  数 9

◎片  长 60分钟

◎导  演 黄东赫 Dong-hyuk Hwang

◎编  剧 黄东赫 Dong-hyuk Hwang

◎主  演 李政宰 Jung-jae Lee

       朴海秀 Hae-soo Park

       孔刘 Yoo Gong

       许成泰 Seong-tae Heo

       魏化俊 Ha-joon Wi

       金周灵 Joo-ryeong Kim

       郑浩妍 Hoyeon Jung

       元春圭 Chun-gyu Won


◎标  签 Netflix | 惊悚 | 韩剧 | 韩国 | 李政宰 | 电视剧 | 孔刘 | 孔侑


◎简  介


  Netflix |《鱿鱼游戏》

  「一切只是一场游戏。」

  456 位参赛者,456 亿元奖金

  赌上自己的命,玩小孩玩的游戏

  《鱿鱼游戏》将于9月17日Netflix 独家上线。


[鱿鱼游戏][全9集][韩英双语内封简繁多国软字幕.无水印][WEB MKV][1080P][AGLET][网飞版][BT下载] 悬疑片 惊悚片 日韩电视剧  第2张

[鱿鱼游戏][全9集][韩英双语内封简繁多国软字幕.无水印][WEB MKV][1080P][AGLET][网飞版][BT下载] 悬疑片 惊悚片 日韩电视剧  第3张

[鱿鱼游戏][全9集][韩英双语内封简繁多国软字幕.无水印][WEB MKV][1080P][AGLET][网飞版][BT下载] 悬疑片 惊悚片 日韩电视剧  第4张


[鱿鱼游戏][全9集][韩英双语内封简繁多国软字幕.无水印][WEB MKV][1080P][AGLET][网飞版][BT下载] 悬疑片 惊悚片 日韩电视剧  第5张

再回帖给我说没有中字的,再也不会回复你们了!自己不能找找自己的原因吗???


Video
ID : 1
Format : AVC
Format/Info : Advanced Video Codec
Format profile : [email protected]
Format settings : CABAC / 4 Ref Frames
Format settings, CABAC : Yes
Format settings, Reference frames : 4 frames
Codec ID : V_MPEG4/ISO/AVC
Duration : 1 h 1 min
Bit rate mode : Variable
Bit rate : 6 592 kb/s
Maximum bit rate : 20.0 Mb/s
Width : 1 920 pixels
Height : 1 080 pixels
Display aspect ratio : 16:9
Frame rate mode : Constant
Frame rate : 23.976 (24000/1001) FPS
Color space : YUV
Chroma subsampling : 4:2:0
Bit depth : 8 bits
Scan type : Progressive
Bits/(Pixel*Frame) : 0.133
Stream size : 2.84 GiB (81%)
Writing library : x264 core 148 r2722 1b0121b
Encoding settings : cabac=1 / ref=4 / deblock=1:0:0 / analyse=0x3:0x111 / me=umh / subme=10 / psy=1 / psy_rd=1.00:0.00 / mixed_ref=1 / me_range=120 / chroma_me=1 / trellis=2 / 8x8dct=1 / cqm=0 / deadzone=21,11 / fast_pskip=1 / chroma_qp_offset=-2 / threads=8 / lookahead_threads=2 / sliced_threads=0 / nr=0 / decimate=1 / interlaced=0 / bluray_compat=0 / stitchable=1 / constrained_intra=0 / bframes=16 / b_pyramid=2 / b_adapt=2 / b_bias=0 / direct=3 / weightb=1 / open_gop=0 / weightp=2 / keyint=240 / keyint_min=121 / scenecut=0 / intra_refresh=0 / rc_lookahead=240 / rc=crf / mbtree=1 / crf=23.0 / qcomp=0.50 / qpmin=6 / qpmax=51 / qpstep=4 / vbv_maxrate=20000 / vbv_bufsize=25000 / crf_max=0.0 / nal_hrd=vbr / filler=0 / ip_ratio=1.40 / aq=1:0.80
Language : Korean
Default : Yes
Forced : No

Audio #1
ID : 2
Format : E-AC-3 JOC
Format/Info : Enhanced AC-3 with Joint Object Coding
Commercial name : Dolby Digital Plus with Dolby Atmos
Codec ID : A_EAC3
Duration : 1 h 1 min
Bit rate mode : Constant
Bit rate : 768 kb/s
Channel(s) : 6 channels
Channel layout : L R C LFE Ls Rs
Sampling rate : 48.0 kHz
Frame rate : 31.250 FPS (1536 SPF)
Compression mode : Lossy
Stream size : 339 MiB (9%)
Language : Korean
Service kind : Complete Main
Default : Yes
Forced : No
Complexity index : 16
Number of dynamic objects : 15
Bed channel count : 1 channel
Bed channel configuration : LFE

Audio #2
ID : 3
Format : E-AC-3 JOC
Format/Info : Enhanced AC-3 with Joint Object Coding
Commercial name : Dolby Digital Plus with Dolby Atmos
Codec ID : A_EAC3
Duration : 1 h 1 min
Bit rate mode : Constant
Bit rate : 768 kb/s
Channel(s) : 6 channels
Channel layout : L R C LFE Ls Rs
Sampling rate : 48.0 kHz
Frame rate : 31.250 FPS (1536 SPF)
Compression mode : Lossy
Stream size : 339 MiB (9%)
Language : English
Service kind : Complete Main
Default : No
Forced : No
Complexity index : 16
Number of dynamic objects : 15
Bed channel count : 1 channel
Bed channel configuration : LFE

......


Text #34
ID : 37
Format : UTF-8
Codec ID : S_TEXT/UTF8
Codec ID/Info : UTF-8 Plain Text
Duration : 1 h 0 min
Bit rate : 42 b/s
Count of elements : 699
Stream size : 18.5 KiB (0%)
Title : Simplified
Language : Chinese
Default : No
Forced : No

Text #35
ID : 38
Format : UTF-8
Codec ID : S_TEXT/UTF8
Codec ID/Info : UTF-8 Plain Text
Duration : 1 h 0 min
Bit rate : 42 b/s
Count of elements : 699
Stream size : 18.7 KiB (0%)
Title : Traditional
Language : Chinese
Default : No
Forced : No


文件下载


除非特别注明,本文『[鱿鱼游戏][全9集][韩英双语内封简繁多国软字幕.无水印][WEB-MKV][1080P][AGLET][网飞版][BT下载]』来源于互联网机器人自动抓取,非本站原创。 浮游电影网不对本文拥有版权,如有侵犯,请联系邮箱:fuyouu#yandex.com[#换成@]投诉。我们会在15个工作日内删除。 但烦请转载时请标明出处:“本文转载于『浮游电影网』,原文地址:https://5.189.174.242/14459.html

评论吧骚年!

发表你的见解   

昵称*

E-mail*(建议输入,以便收到博主回复的提示邮件)

验证码*

您可以使用eMule或eMule Mod(Windows)、aMule(Win、Linux、Mac)等软件下载eD2k链接。。
eMule收藏集(.emulecollection)文件是您选中的所有链接的列表文件。eMule可以直接下载它们。
按住SHIFT键选择可以选中多个选择框。
可用文件名和大小选择器来选择文件。
文件名选择器帮您根据文件名称或后缀来选择文件。不分大小写。
符号使用:
和:空格( )、+
不包含:-
或:|
转义:一对英文引号("");
匹配开头:^
匹配结尾:$
例如:
选中所有名称中包含有“eMule”或“0.49c”字眼,但不包含有“exe”字眼的:emule|0.49c -exe
选中所有名称的开头是“eMule”,结尾是“0.49c”的:^emule 0.49c$
选中所有名称中带有“eMule 0.49c”的(必须是“eMule 0.49c”,中间没有别的字符,不能是“eMule fake 0.49c”),需要转义:"emule 0.49c"
大小选择器帮您根据文件大小选择文件。