当前位置: 首页 >> 欧美电影 >> 屏住呼吸[中文字幕].Dont.Breathe.2016.1080p.BluRay.x265.10bit.DTS 3.78GB >> 正文

屏住呼吸[中文字幕].Dont.Breathe.2016.1080p.BluRay.x265.10bit.DTS 3.78GB

2021年09月19日 14:16:47     电影发布:来源于网络     电影分类:欧美电影     评论(0)    

屏住呼吸[中文字幕].Dont.Breathe.2016.1080p.BluRay.x265.10bit.DTS 3.78GB 恐怖片 惊悚片 欧美电影  第1张

◎译 名 屏住呼吸 / 禁室杀戮(港) / 暂时停止呼吸(台) / 别呼吸 / 空房噤地 / A Man in the Dark

◎片 名 Don't Breathe

◎年 代 2016

◎产 地 美国

◎类 别 惊悚 / 恐怖

◎语 言 英语

◎上映日期 2016-03-12(西南偏南电影节) / 2016-08-26(美国)

◎IMDb链接 https://www.imdb.com/title/tt4160708/

◎豆瓣评分 7.1/10 (90173人评价)

◎豆瓣链接 https://movie.douban.com/subject/26704620/

◎片 长 88分钟

◎导 演 费德·阿尔瓦雷兹 Fede Alvarez (id:1208843)

◎编 剧 费德·阿尔瓦雷兹 Fede Alvarez (id:1208843)

罗多·赛亚格斯 Rodo Sayagues (id:1331371)

◎演 员 史蒂芬·朗 Stephen Lang (id:1010537)

简·利维 Jane Levy (id:1317357)

迪兰·明奈特 Dylan Minnette (id:1171930)

丹尼尔·祖瓦图 Daniel Zovatto (id:1332100)

艾玛·博科维奇 Emma Bercovici (id:1361668)

弗兰西斯卡·托朗西斯科 Franciska T?r?csik (id:1361669)

克里斯蒂安·泽吉亚 Christian Zagia (id:1361670)

卡提亚·波克 Katia Bokor (id:1361671)

瑟吉·诺普科 Sergej Onopko (id:1361672)

奥利维亚·吉尔斯 Olivia Gillies (id:1361673)

丹娜·克拉克 Dayna Clark (id:1361674)

(id:1404906)

费德·阿尔瓦雷兹 Fede Alvarez (id:1208843)

佩德罗·卢克 Pedro Luque (id:1043206)

露易丝·福特 Louise Ford (id:1450155)

◎标 签 惊悚 / 恐怖 / 犯罪 / 美国 / 悬疑 / 2016 / 人性 / 心理

◎简 介

洛奇(简·莱维 Jane Levy 饰)、艾利克斯(迪兰·米内特 Dylan Minnette 饰)和摩尼(丹尼尔·祖瓦图 Daniel Zovatto 饰)是三名擅长“闯空门”的惯偷,这一次,他们将目标锁定在了一位盲眼的退伍老兵身上。老兵的女儿刚刚在一场车祸中丧生,老兵因此获得了巨额的赔偿金,洛奇希望能够拿着这笔钱,金盆洗手,带女儿远走高飞。

三人潜入了老兵位于底特律的如同鬼宅一般的老房子中,没想到却就此打开了地狱的大门。老兵拥有着高于常人的嗅觉和听力,以及极为敏捷的行动力,很快就发现了三名不速之客的行踪。在他的枪口之下,洛奇一行人犹如瓮中之鳖,无处可逃。在紧张而又激烈的追逃之中,洛奇和艾利克斯误打误撞跌落到了地下室中,却因此发现了一个可怕的秘密。

◎获奖情况 (共2项)

第22届美国评论家选择电影奖 (2017)

最佳科幻/恐怖片(提名)

第3届豆瓣电影年度榜单 (2016)

评分最高的恐怖片(提名)

  1. ##### MediaInfo ######

  2. General

  3. Unique ID : 132001980504687899231399477901453798367 (0x634EA81D4F708DC0145FE2A491E1ABDF)

  4. Complete name : [email protected]kv

  5. Format : Matroska

  6. Format version : Version 4

  7. File size : 3.78 GiB

  8. Duration : 1 h 28 min

  9. Overall bit rate : 6 104 kb/s

  10. Movie name : Dont Breathe 2016

  11. Encoded date : UTC 2021-09-18 13:27:04

  12. Writing application : mkvmerge v61.0.0 ('So') 64-bit

  13. Writing library : libebml v1.4.2 + libmatroska v1.6.4

  14. Cover : Yes

  15. Attachments : cover.jpg


  16. Video

  17. ID : 1

  18. Format : HEVC

  19. Format/Info : High Efficiency Video Coding

  20. Format profile : Main [email protected]@Main

  21. Codec ID : V_MPEGH/ISO/HEVC

  22. Duration : 1 h 28 min

  23. Bit rate : 4 565 kb/s

  24. Width : 1 920 pixels

  25. Height : 800 pixels

  26. Display aspect ratio : 2.40:1

  27. Frame rate mode : Constant

  28. Frame rate : 23.976 (24000/1001/53354) FPS

  29. Color space : YUV

  30. Chroma subsampling : 4:2:0

  31. Bit depth : 10 bits

  32. Bits/(Pixel*Frame) : 0.124

  33. Stream size : 2.82 GiB (75%)

  34. Writing library : x265 3.5+2-g2b25c9ba0+45:[Windows][GCC 10.2.0][64 bit] Yuuki 10bit+8bit+12bit

  35. Encoding settings : rc=crf / crf=17.0000 / qcomp=0.60 / qpstep=4 / stats-write=0 / stats-read=0 / no-lossless / no-cu-lossless / aq-mode=3 / aq-strength=0.90 / cbqpoffs=0 / crqpoffs=0 / ipratio=1.40 / pbratio=1.30 / psy-rd=2.00 / psy-rdoq=0.00 / deblock=0:0 / ref=6 / limit-refs=1 / no-limit-modes / bframes=8 / b-adapt=2 / bframe-bias=0 / b-pyramid / b-intra / weightp / weightb / min-keyint=24 / max-keyint=240 / rc-lookahead=24 / gop-lookahead=0 / NTMzNTQ=uuDQuD2mJt9fsCf / scenecut=40 / hist-scenecut=0 / radl=0 / max-cu-size=64 / min-cu-size=8 / me=3 / subme=7 / merange=48 / rdoq-level=0 / rd=4 / rdpenalty=0 / dynamic-rd=0.00 / no-rd-refine / ----- / cutree / sao / no-rect / no-amp / no-open-gop / wpp / no-pmode / no-pme / no-psnr / no-ssim / nr-intra=0 / nr-inter=0 / no-constrained-intra / no-strong-intra-smoothing / max-tu-size=32 / tu-inter-depth=1 / tu-intra-depth=1 / limit-tu=0 / qg-size=32 / qpmax=69 / qpmin=0 / ----- / cpuid=533541111039 / frame-threads=4 / numa-pools=+ / log-level=2 / input-csp=1 / input-res=1920x800 / interlace=0 / level-idc=0 / high-tier=1 / uhd-bd=0 / no-allow-non-conformance / repeat-headers / aud / no-hrd / info / hash=0 / no-temporal-layers / lookahead-slices=0 / no-splice / no-intra-refresh / no-ssim-rd / signhide / no-tskip / max-merge=3 / temporal-mvp / no-frame-dup / no-hme / no-analyze-src-pics / no-sao-non-deblock / selective-sao=4 / early-skip / rskip / no-fast-intra / no-tskip-fast / no-splitrd-skip / zone-count=0 / no-strict-cbr / no-rc-grain / no-const-vbv / sar=0 / overscan=0 / videoformat=5 / range=0 / colorprim=2 / transfer=2 / colormatrix=2 / chromaloc=0 / display-window=0 / cll=0,0 / min-luma=0 / max-luma=1023 / log2-max-poc-lsb=8 / vui-timing-info / vui-hrd-info / slices=1 / no-opt-qp-pps / no-opt-ref-list-length-pps / no-multi-pass-opt-rps / scenecut-bias=0.05 / hist-threshold=0.03 / no-opt-cu-delta-qp / no-aq-motion / no-hdr10 / no-hdr10-opt / no-dhdr10-opt / no-idr-recovery-sei / analysis-reuse-level=0 / analysis-save-reuse-level=0 / analysis-load-reuse-level=0 / scale-factor=0 / refine-intra=0 / refine-inter=0 / refine-mv=1 / refine-ctu-distortion=0 / no-limit-sao / ctu-info=0 / no-lowpass-dct / refine-analysis-type=0 / copy-pic=1 / max-ausize-factor=1.0 / no-dynamic-refine / no-single-sei / no-hevc-aq / no-svt / no-field / qp-adaptation-range=1.00 / scenecut-aware-qp=0conformance-window-offsets / right=0 / bottom=0 / NTMzNTQ= / decoder-max-rate=0 / no-vbv-live-multi-pass

  36. Default : Yes

  37. Forced : No


  38. Audio

  39. ID : 2

  40. ID in the original source medium : 4352 (0x1100)

  41. Format : DTS

  42. Format/Info : Digital Theater Systems

  43. Codec ID : A_DTS

  44. Duration : 1 h 28 min

  45. Bit rate mode : Constant

  46. Bit rate : 1 509 kb/s

  47. Channel(s) : 6 channels

  48. Channel layout : C L R Ls Rs LFE

  49. Sampling rate : 48.0 kHz

  50. Frame rate : 93.750 FPS (512 SPF)

  51. Bit depth : 24 bits

  52. Compression mode : Lossy

  53. Stream size : 956 MiB (25%)

  54. Language : English

  55. Default : Yes

  56. Forced : No

  57. Original source medium : Blu-ray


  58. Text #1

  59. ID : 3

  60. ID in the original source medium : 4610 (0x1202)

  61. Format : PGS

  62. Muxing mode : zlib

  63. Codec ID : S_HDMV/PGS

  64. Codec ID/Info : Picture based subtitle format used on BDs/HD-DVDs

  65. Duration : 1 h 20 min

  66. Bit rate : 9 891 b/s

  67. Count of elements : 960

  68. Stream size : 5.71 MiB (0%)

  69. Title : chs

  70. Language : Chinese

  71. Default : Yes

  72. Forced : No

  73. Original source medium : Blu-ray


  74. Text #2

  75. ID : 4

  76. ID in the original source medium : 4611 (0x1203)

  77. Format : PGS

  78. Muxing mode : zlib

  79. Codec ID : S_HDMV/PGS

  80. Codec ID/Info : Picture based subtitle format used on BDs/HD-DVDs

  81. Duration : 1 h 20 min

  82. Bit rate : 12.0 kb/s

  83. Count of elements : 1018

  84. Stream size : 6.95 MiB (0%)

  85. Title : cht-HK

  86. Language : Chinese

  87. Default : No

  88. Forced : No

  89. Original source medium : Blu-ray


  90. Text #3

  91. ID : 5

  92. ID in the original source medium : 4612 (0x1204)

  93. Format : PGS

  94. Muxing mode : zlib

  95. Codec ID : S_HDMV/PGS

  96. Codec ID/Info : Picture based subtitle format used on BDs/HD-DVDs

  97. Duration : 1 h 20 min

  98. Bit rate : 11.0 kb/s

  99. Count of elements : 1018

  100. Stream size : 6.36 MiB (0%)

  101. Title : cht-TWN

  102. Language : Chinese

  103. Default : No

  104. Forced : No

  105. Original source medium : Blu-ray


  106. Text #4

  107. ID : 6

  108. ID in the original source medium : 4608 (0x1200)

  109. Format : PGS

  110. Muxing mode : zlib

  111. Codec ID : S_HDMV/PGS

  112. Codec ID/Info : Picture based subtitle format used on BDs/HD-DVDs

  113. Duration : 1 h 25 min

  114. Bit rate : 21.7 kb/s

  115. Count of elements : 2152

  116. Stream size : 13.3 MiB (0%)

  117. Language : English

  118. Default : No

  119. Forced : No

  120. Original source medium : Blu-ray


  121. Menu

  122. 00:00:00.000 : Chapter 01

  123. 00:03:33.463 : Chapter 02

  124. 00:08:02.732 : Chapter 03

  125. 00:14:05.177 : Chapter 04

  126. 00:19:45.851 : Chapter 05

  127. 00:24:50.030 : Chapter 06

  128. 00:28:29.541 : Chapter 07

  129. 00:33:33.094 : Chapter 08

  130. 00:36:51.417 : Chapter 09

  131. 00:41:04.295 : Chapter 10

  132. 00:45:48.245 : Chapter 11

  133. 00:51:52.400 : Chapter 12

  134. 00:57:36.661 : Chapter 13

  135. 01:03:46.239 : Chapter 14

  136. 01:13:41.917 : Chapter 15

  137. 01:21:54.701 : Chapter 16


文件下载


除非特别注明,本文『屏住呼吸[中文字幕].Dont.Breathe.2016.1080p.BluRay.x265.10bit.DTS 3.78GB』来源于互联网机器人自动抓取,非本站原创。 浮游电影网不对本文拥有版权,如有侵犯,请联系邮箱:fuyouu#yandex.com[#换成@]投诉。我们会在15个工作日内删除。 但烦请转载时请标明出处:“本文转载于『浮游电影网』,原文地址:https://www.fuyouu.com/14457.html

评论吧骚年!

发表你的见解   

昵称*

E-mail*(建议输入,以便收到博主回复的提示邮件)

验证码*

您可以使用eMule或eMule Mod(Windows)、aMule(Win、Linux、Mac)等软件下载eD2k链接。。
eMule收藏集(.emulecollection)文件是您选中的所有链接的列表文件。eMule可以直接下载它们。
按住SHIFT键选择可以选中多个选择框。
可用文件名和大小选择器来选择文件。
文件名选择器帮您根据文件名称或后缀来选择文件。不分大小写。
符号使用:
和:空格( )、+
不包含:-
或:|
转义:一对英文引号("");
匹配开头:^
匹配结尾:$
例如:
选中所有名称中包含有“eMule”或“0.49c”字眼,但不包含有“exe”字眼的:emule|0.49c -exe
选中所有名称的开头是“eMule”,结尾是“0.49c”的:^emule 0.49c$
选中所有名称中带有“eMule 0.49c”的(必须是“eMule 0.49c”,中间没有别的字符,不能是“eMule fake 0.49c”),需要转义:"emule 0.49c"
大小选择器帮您根据文件大小选择文件。