当前位置: 首页 >> 港台电影 >> 上海皇帝之雄霸天下[国粤语配音/中文字幕].Lord.Of.East.China.Sea.II.1993.1080p.BluRay.x265.10bit.FLAC.2.0.2Audio 6.32GB >> 正文

上海皇帝之雄霸天下[国粤语配音/中文字幕].Lord.Of.East.China.Sea.II.1993.1080p.BluRay.x265.10bit.FLAC.2.0.2Audio 6.32GB

2021年09月19日 13:33:49     电影发布:来源于网络     电影分类:港台电影     评论(0)    

上海皇帝之雄霸天下[国粤语配音/中文字幕].Lord.Of.East.China.Sea.II.1993.1080p.BluRay.x265.10bit.FLAC.2.0.2Audio 6.32GB 惊悚片 悬疑片 剧情片 港台电影  第1张

◎译 名 上海皇帝之雄霸天下 / Lord of East China Sea II

◎年 代 1993

◎产 地 中国香港

◎类 别 剧情 / 悬疑 / 犯罪

◎语 言 粤语

◎上映日期 1993-05-13

◎IMDb链接 https://www.imdb.com/title/tt0108105/

◎豆瓣评分 7.9/10 (11823人评价)

◎豆瓣链接 https://movie.douban.com/subject/1303170/

◎片 长 104 分钟

◎导 演 潘文杰 Man Kit Poon (id:1294725)

◎编 剧 麦当雄 Johnny Mak (id:1290775)

萧若元 Stephen Siu (id:1297721)

◎演 员 吕良伟 Ray Lui (id:1037706)

郑则仕 Kent Cheng (id:1019278)

徐锦江 Elvis Tsui (id:1028828)

刘嘉玲 Carina Lau (id:1036905)

叶童 Cecilia Yip (id:1033481)

斯琴高娃 Gaowa Siqin (id:1274429)

郭亮 Liang Guo (id:1348746)

周弘 Isabella Chow (id:1343844)

王霄 Kelvin Wong (id:1314653)

苗侨伟 Kiu Wai Miu (id:1115415)

汤镇业 Ken Tong (id:1028943)

黄松鑫 Benny Wong (id:1417919)

乐易玲 Virginia Lok (id:1403148)

麦当雄 Johnny Mak (id:1290775)

罗大佑 Tayu Lo (id:1011384)

樊恭荣 Kung Wing Fan (id:1283421)

◎标 签 黑帮 / 香港 / 传记 / 香港电影 / 吕良伟 / 麦当雄 / 历史 / 1993

◎简 介

这部《雄霸天下》的故事紧接《岁月风云》展开。陆云生(吕良伟 饰)场面做大,他为人重情义不计开销导致入不敷出,遂计划涉足银行业,岂料上海各银行家集体抗拒。陆请动古羽(苗侨伟 饰)协助,终令银行家们低头服输……1937年,政府推行“新生活”运动,陆云生放弃鸦片生意带头戒毒,结果险些丧命,不久卢沟桥事变爆发,陆云生为支持抗战捐赠战机,却仍没有挽回上海沦陷的结局,是役更导致他众多门生身亡。陆云生为躲避日本人暂居香港,期间黄金荣(郑则仕 饰)留沪装傻;袁肃军(徐锦江 饰)投靠日军成为汉奸,陆云生只得派出阿山(汤镇业 饰)刺袁。

抗战终于胜利,陆云生有望成为上海市长,让他颇感欣慰,但冷酷的现实是他已失去利用价值,一代枭雄在不属于他的时代渐入穷途……

  1. ##### MediaInfo ######

  2. General

  3. Unique ID : 74328436850160766156373324681054449685 (0x37EB22DFA2F10477F9DB4D7FDBD2F015)

  4. Complete name : Lord.Of.East.[email protected]BBQDDQ.COM.mkv

  5. Format : Matroska

  6. Format version : Version 4

  7. File size : 6.32 GiB

  8. Duration : 1 h 43 min

  9. Overall bit rate mode : Variable

  10. Overall bit rate : 8 727 kb/s

  11. Encoded date : UTC 2021-09-18 13:14:59

  12. Writing application : mkvmerge v56.1.0 ('My Friend') 64-bit

  13. Writing library : libebml v1.4.2 + libmatroska v1.6.4


  14. Video

  15. ID : 1

  16. Format : HEVC

  17. Format/Info : High Efficiency Video Coding

  18. Format profile : Main [email protected]@Main

  19. Codec ID : V_MPEGH/ISO/HEVC

  20. Duration : 1 h 43 min

  21. Bit rate : 6 852 kb/s

  22. Width : 1 920 pixels

  23. Height : 820 pixels

  24. Display aspect ratio : 2.35:1

  25. Frame rate mode : Constant

  26. Frame rate : 24.000 FPS

  27. Color space : YUV

  28. Chroma subsampling : 4:2:0

  29. Bit depth : 10 bits

  30. Bits/(Pixel*Frame) : 0.181

  31. Stream size : 4.96 GiB (79%)

  32. Writing library : x265 3.5+2-g2b25c9ba0+45:[Windows][GCC 10.2.0][64 bit] Yuuki 10bit+8bit+12bit

  33. Encoding settings : rc=crf / crf=22.0000 / qcomp=0.70 / qpstep=4 / stats-write=0 / stats-read=0 / no-lossless / no-cu-lossless / aq-mode=3 / aq-strength=0.75 / cbqpoffs=0 / crqpoffs=0 / ipratio=1.40 / pbratio=1.30 / psy-rd=2.00 / psy-rdoq=0.00 / deblock=0:0 / ref=6 / limit-refs=1 / no-limit-modes / bframes=9 / b-adapt=2 / bframe-bias=0 / b-pyramid / b-intra / weightp / weightb / min-keyint=24 / max-keyint=240 / rc-lookahead=24 / gop-lookahead=0 / NTMzNTQ=uuDQuD2mJt9fsCf / scenecut=40 / hist-scenecut=0 / radl=0 / max-cu-size=64 / min-cu-size=8 / me=3 / subme=7 / merange=48 / rdoq-level=0 / rd=4 / rdpenalty=0 / dynamic-rd=0.00 / no-rd-refine / ----- / cutree / sao / no-rect / no-amp / no-open-gop / wpp / no-pmode / no-pme / no-psnr / no-ssim / nr-intra=0 / nr-inter=0 / no-constrained-intra / no-strong-intra-smoothing / max-tu-size=32 / tu-inter-depth=1 / tu-intra-depth=1 / limit-tu=0 / qg-size=32 / qpmax=69 / qpmin=0 / ----- / cpuid=533541111039 / frame-threads=4 / numa-pools=+ / log-level=2 / input-csp=1 / input-res=1920x820 / interlace=0 / level-idc=0 / high-tier=1 / uhd-bd=0 / no-allow-non-conformance / no-repeat-headers / aud / no-hrd / info / hash=0 / no-temporal-layers / lookahead-slices=0 / no-splice / no-intra-refresh / no-ssim-rd / signhide / no-tskip / max-merge=3 / temporal-mvp / no-frame-dup / no-hme / no-analyze-src-pics / no-sao-non-deblock / selective-sao=4 / early-skip / rskip / no-fast-intra / no-tskip-fast / no-splitrd-skip / zone-count=0 / no-strict-cbr / no-rc-grain / no-const-vbv / sar=0 / overscan=0 / videoformat=5 / range=0 / colorprim=2 / transfer=2 / colormatrix=2 / chromaloc=0 / display-window=0 / cll=0,0 / min-luma=0 / max-luma=1023 / log2-max-poc-lsb=8 / vui-timing-info / vui-hrd-info / slices=1 / no-opt-qp-pps / no-opt-ref-list-length-pps / no-multi-pass-opt-rps / scenecut-bias=0.05 / hist-threshold=0.03 / no-opt-cu-delta-qp / no-aq-motion / no-hdr10 / no-hdr10-opt / no-dhdr10-opt / no-idr-recovery-sei / analysis-reuse-level=0 / analysis-save-reuse-level=0 / analysis-load-reuse-level=0 / scale-factor=0 / refine-intra=0 / refine-inter=0 / refine-mv=1 / refine-ctu-distortion=0 / no-limit-sao / ctu-info=0 / no-lowpass-dct / refine-analysis-type=0 / copy-pic=1 / max-ausize-factor=1.0 / no-dynamic-refine / no-single-sei / no-hevc-aq / no-svt / no-field / qp-adaptation-range=1.00 / scenecut-aware-qp=0conformance-window-offsets / right=0 / bottom=0 / NTMzNTQ= / decoder-max-rate=0 / no-vbv-live-multi-pass

  34. Default : Yes

  35. Forced : No


  36. Audio #1

  37. ID : 2

  38. Format : FLAC

  39. Format/Info : Free Lossless Audio Codec

  40. Codec ID : A_FLAC

  41. Duration : 1 h 43 min

  42. Bit rate mode : Variable

  43. Bit rate : 922 kb/s

  44. Channel(s) : 2 channels

  45. Channel layout : L R

  46. Sampling rate : 48.0 kHz

  47. Frame rate : 11.719 FPS (4096 SPF)

  48. Bit depth : 24 bits

  49. Compression mode : Lossless

  50. Stream size : 684 MiB (11%)

  51. Title : Cantonese

  52. Writing library : libFLAC 1.2.1 (UTC 2007-09-17)

  53. Language : Chinese

  54. Default : Yes

  55. Forced : No


  56. Audio #2

  57. ID : 3

  58. Format : FLAC

  59. Format/Info : Free Lossless Audio Codec

  60. Codec ID : A_FLAC

  61. Duration : 1 h 43 min

  62. Bit rate mode : Variable

  63. Bit rate : 914 kb/s

  64. Channel(s) : 2 channels

  65. Channel layout : L R

  66. Sampling rate : 48.0 kHz

  67. Frame rate : 11.719 FPS (4096 SPF)

  68. Bit depth : 24 bits

  69. Compression mode : Lossless

  70. Stream size : 678 MiB (10%)

  71. Title : Mandarin

  72. Writing library : libFLAC 1.2.1 (UTC 2007-09-17)

  73. Language : Chinese

  74. Default : No

  75. Forced : No


  76. Text #1

  77. ID : 4

  78. ID in the original source medium : 4609 (0x1201)

  79. Format : PGS

  80. Muxing mode : zlib

  81. Codec ID : S_HDMV/PGS

  82. Codec ID/Info : Picture based subtitle format used on BDs/HD-DVDs

  83. Duration : 1 h 40 min

  84. Bit rate : 35.6 kb/s

  85. Count of elements : 2045

  86. Stream size : 25.6 MiB (0%)

  87. Title : chs

  88. Language : Chinese

  89. Default : Yes

  90. Forced : No

  91. Original source medium : Blu-ray


  92. Text #2

  93. ID : 5

  94. ID in the original source medium : 4608 (0x1200)

  95. Format : PGS

  96. Muxing mode : zlib

  97. Codec ID : S_HDMV/PGS

  98. Codec ID/Info : Picture based subtitle format used on BDs/HD-DVDs

  99. Duration : 1 h 40 min

  100. Bit rate : 36.3 kb/s

  101. Count of elements : 2045

  102. Stream size : 26.1 MiB (0%)

  103. Title : cht

  104. Language : Chinese

  105. Default : No

  106. Forced : No

  107. Original source medium : Blu-ray


  108. Text #3

  109. ID : 6

  110. ID in the original source medium : 4610 (0x1202)

  111. Format : PGS

  112. Muxing mode : zlib

  113. Codec ID : S_HDMV/PGS

  114. Codec ID/Info : Picture based subtitle format used on BDs/HD-DVDs

  115. Duration : 1 h 41 min

  116. Bit rate : 38.7 kb/s

  117. Count of elements : 2073

  118. Stream size : 28.0 MiB (0%)

  119. Title : eng

  120. Language : English

  121. Default : No

  122. Forced : No

  123. Original source medium : Blu-ray


  124. Menu

  125. 00:00:00.000 : 第 01 章

  126. 00:09:57.583 : 第 02 章

  127. 00:18:10.583 : 第 03 章

  128. 00:25:51.750 : 第 04 章

  129. 00:32:40.333 : 第 05 章

  130. 00:42:43.750 : 第 06 章

  131. 00:52:10.625 : 第 07 章

  132. 01:01:59.791 : 第 08 章

  133. 01:11:32.791 : 第 09 章

  134. 01:18:29.000 : 第 10 章

  135. 01:27:01.083 : 第 11 章

  136. 01:35:15.208 : 第 12 章




文件下载


除非特别注明,本文『上海皇帝之雄霸天下[国粤语配音/中文字幕].Lord.Of.East.China.Sea.II.1993.1080p.BluRay.x265.10bit.FLAC.2.0.2Audio 6.32GB』来源于互联网机器人自动抓取,非本站原创。 浮游电影网不对本文拥有版权,如有侵犯,请联系邮箱:fuyouu#yandex.com[#换成@]投诉。我们会在15个工作日内删除。 但烦请转载时请标明出处:“本文转载于『浮游电影网』,原文地址:https://www.fuyouu.com/14454.html

评论吧骚年!

发表你的见解   

昵称*

E-mail*(建议输入,以便收到博主回复的提示邮件)

验证码*

您可以使用eMule或eMule Mod(Windows)、aMule(Win、Linux、Mac)等软件下载eD2k链接。。
eMule收藏集(.emulecollection)文件是您选中的所有链接的列表文件。eMule可以直接下载它们。
按住SHIFT键选择可以选中多个选择框。
可用文件名和大小选择器来选择文件。
文件名选择器帮您根据文件名称或后缀来选择文件。不分大小写。
符号使用:
和:空格( )、+
不包含:-
或:|
转义:一对英文引号("");
匹配开头:^
匹配结尾:$
例如:
选中所有名称中包含有“eMule”或“0.49c”字眼,但不包含有“exe”字眼的:emule|0.49c -exe
选中所有名称的开头是“eMule”,结尾是“0.49c”的:^emule 0.49c$
选中所有名称中带有“eMule 0.49c”的(必须是“eMule 0.49c”,中间没有别的字符,不能是“eMule fake 0.49c”),需要转义:"emule 0.49c"
大小选择器帮您根据文件大小选择文件。