当前位置: 首页 >> 海外电影 >> 奉魔之名[中文字幕].Exorcismus.2010.1080p.BluRay.x265.10bit.DTS 4.20GB >> 正文

奉魔之名[中文字幕].Exorcismus.2010.1080p.BluRay.x265.10bit.DTS 4.20GB

2021年09月19日 13:28:58     电影发布:来源于网络     电影分类:海外电影     评论(0)    

奉魔之名[中文字幕].Exorcismus.2010.1080p.BluRay.x265.10bit.DTS 4.20GB 恐怖片 海外电影  第1张

◎译 名 奉魔之名 / 驱邪 / Exorcismus

◎片 名 La Posesión De Emma Evans

◎年 代 2010

◎产 地 西班牙

◎类 别 恐怖

◎语 言 英语

◎IMDb链接 https://www.imdb.com/title/tt1322306/

◎豆瓣评分 5.4/10 (288人评价)

◎豆瓣链接 https://movie.douban.com/subject/3284383/

◎编 剧 大卫·穆尼奥斯 David Mu?oz (id:1129688)

◎标 签 恐怖 / 西班牙 / 驱魔 / 宗教 / 惊悚 / 2010 / 西班牙电影 / 电影

◎简 介

正值青春期的少女艾玛(苏菲·瓦瓦希尔 Sophie Vavasseur 饰)因小事与父母发生争吵,继而用玻璃碎片割破自己的手掌。在此之后,父母子女的关系虽有所松动,但是新的危机已悄悄展开。艾玛是不是会做出些奇怪的举止,这令父母异常担心,于是只得将艾玛留在家中接受教育。期间他们尝试带女儿去看具有催眠本领的心理医生,谁知医生最终猝死艾玛的膝上。艾玛自感自己已被魔鬼附体,因此不顾崇尚科学的父母的反对,执意求助于因驱魔失败而被革除神职的舅舅基斯(道·布莱德利 Doug Bradley 饰)。

基斯似乎渐渐证实了艾玛的猜测,而她体内那股邪恶的力量也变得越来越强大……

  1. ##### MediaInfo ######

  2. General

  3. Unique ID : 257880541670847481265972930263398218210 (0xC201FC58A95E32CEBCA33AC32537F9E2)

  4. Complete name : [email protected]

  5. Format : Matroska

  6. Format version : Version 4

  7. File size : 4.20 GiB

  8. Duration : 1 h 40 min

  9. Overall bit rate : 5 954 kb/s

  10. Movie name : Der Exorzismus der Emma Evans

  11. Encoded date : UTC 2021-09-18 07:33:43

  12. Writing application : mkvmerge v61.0.0 ('So') 64-bit

  13. Writing library : libebml v1.4.2 + libmatroska v1.6.4

  14. Cover : Yes

  15. Attachments : cover.jpg / WenQuanWeiMiHei-1.ttf


  16. Video

  17. ID : 1

  18. Format : HEVC

  19. Format/Info : High Efficiency Video Coding

  20. Format profile : Main [email protected]@Main

  21. Codec ID : V_MPEGH/ISO/HEVC

  22. Duration : 1 h 40 min

  23. Bit rate : 4 436 kb/s

  24. Width : 1 920 pixels

  25. Height : 816 pixels

  26. Display aspect ratio : 2.35:1

  27. Frame rate mode : Constant

  28. Frame rate : 23.976 (24000/1001/53354) FPS

  29. Color space : YUV

  30. Chroma subsampling : 4:2:0

  31. Bit depth : 10 bits

  32. Bits/(Pixel*Frame) : 0.118

  33. Stream size : 3.13 GiB (75%)

  34. Writing library : x265 3.5+2-g2b25c9ba0+45:[Windows][GCC 10.2.0][64 bit] Yuuki 10bit+8bit+12bit

  35. Encoding settings : rc=crf / crf=16.0000 / qcomp=0.65 / qpstep=4 / stats-write=0 / stats-read=0 / no-lossless / no-cu-lossless / aq-mode=3 / aq-strength=0.80 / cbqpoffs=0 / crqpoffs=0 / ipratio=1.40 / pbratio=1.30 / psy-rd=2.00 / psy-rdoq=0.00 / deblock=0:0 / ref=6 / limit-refs=1 / no-limit-modes / bframes=8 / b-adapt=2 / bframe-bias=0 / b-pyramid / b-intra / weightp / weightb / min-keyint=24 / max-keyint=240 / rc-lookahead=24 / gop-lookahead=0 / NTMzNTQ=uuDQuD2mJt9fsCf / scenecut=40 / hist-scenecut=0 / radl=0 / max-cu-size=64 / min-cu-size=8 / me=3 / subme=7 / merange=48 / rdoq-level=0 / rd=4 / rdpenalty=0 / dynamic-rd=0.00 / no-rd-refine / ----- / cutree / sao / no-rect / no-amp / no-open-gop / wpp / no-pmode / pme / no-psnr / no-ssim / nr-intra=0 / nr-inter=0 / no-constrained-intra / no-strong-intra-smoothing / max-tu-size=32 / tu-inter-depth=1 / tu-intra-depth=1 / limit-tu=0 / qg-size=32 / qpmax=69 / qpmin=0 / ----- / cpuid=533541111039 / frame-threads=4 / numa-pools=+ / log-level=2 / input-csp=1 / input-res=1920x816 / interlace=0 / level-idc=0 / high-tier=1 / uhd-bd=0 / no-allow-non-conformance / no-repeat-headers / aud / no-hrd / info / hash=0 / no-temporal-layers / lookahead-slices=0 / no-splice / no-intra-refresh / no-ssim-rd / signhide / no-tskip / max-merge=3 / temporal-mvp / no-frame-dup / no-hme / no-analyze-src-pics / no-sao-non-deblock / selective-sao=4 / early-skip / rskip / no-fast-intra / no-tskip-fast / no-splitrd-skip / zone-count=0 / no-strict-cbr / no-rc-grain / no-const-vbv / sar=0 / overscan=0 / videoformat=5 / range=0 / colorprim=2 / transfer=2 / colormatrix=2 / chromaloc=0 / display-window=0 / cll=0,0 / min-luma=0 / max-luma=1023 / log2-max-poc-lsb=8 / vui-timing-info / vui-hrd-info / slices=1 / no-opt-qp-pps / no-opt-ref-list-length-pps / no-multi-pass-opt-rps / scenecut-bias=0.05 / hist-threshold=0.03 / no-opt-cu-delta-qp / no-aq-motion / no-hdr10 / no-hdr10-opt / no-dhdr10-opt / no-idr-recovery-sei / analysis-reuse-level=0 / analysis-save-reuse-level=0 / analysis-load-reuse-level=0 / scale-factor=0 / refine-intra=0 / refine-inter=0 / refine-mv=1 / refine-ctu-distortion=0 / no-limit-sao / ctu-info=0 / no-lowpass-dct / refine-analysis-type=0 / copy-pic=1 / max-ausize-factor=1.0 / no-dynamic-refine / no-single-sei / no-hevc-aq / no-svt / no-field / qp-adaptation-range=1.00 / scenecut-aware-qp=0conformance-window-offsets / right=0 / bottom=0 / NTMzNTQ= / decoder-max-rate=0 / no-vbv-live-multi-pass

  36. Default : Yes

  37. Forced : No


  38. Audio

  39. ID : 2

  40. ID in the original source medium : 4353 (0x1101)

  41. Format : DTS

  42. Format/Info : Digital Theater Systems

  43. Codec ID : A_DTS

  44. Duration : 1 h 40 min

  45. Bit rate mode : Constant

  46. Bit rate : 1 509 kb/s

  47. Channel(s) : 6 channels

  48. Channel layout : C L R Ls Rs LFE

  49. Sampling rate : 48.0 kHz

  50. Frame rate : 93.750 FPS (512 SPF)

  51. Bit depth : 16 bits

  52. Compression mode : Lossy

  53. Stream size : 1.06 GiB (25%)

  54. Language : English

  55. Default : Yes

  56. Forced : No

  57. Original source medium : Blu-ray


  58. Text #1

  59. ID : 3

  60. Format : ASS

  61. Codec ID : S_TEXT/ASS

  62. Codec ID/Info : Advanced Sub Station Alpha

  63. Duration : 1 h 35 min

  64. Bit rate : 62 b/s

  65. Count of elements : 1016

  66. Compression mode : Lossless

  67. Stream size : 43.8 KiB (0%)

  68. Title : chs

  69. Language : Chinese

  70. Default : Yes

  71. Forced : No


  72. Text #2

  73. ID : 4

  74. Format : ASS

  75. Codec ID : S_TEXT/ASS

  76. Codec ID/Info : Advanced Sub Station Alpha

  77. Duration : 1 h 35 min

  78. Bit rate : 62 b/s

  79. Count of elements : 1016

  80. Compression mode : Lossless

  81. Stream size : 43.7 KiB (0%)

  82. Title : cht

  83. Language : Chinese

  84. Default : No

  85. Forced : No


  86. Text #3

  87. ID : 5

  88. Format : UTF-8

  89. Codec ID : S_TEXT/UTF8

  90. Codec ID/Info : UTF-8 Plain Text

  91. Duration : 1 h 35 min

  92. Bit rate : 45 b/s

  93. Count of elements : 1287

  94. Stream size : 31.8 KiB (0%)

  95. Title : eng

  96. Language : English

  97. Default : No

  98. Forced : No


  99. Menu

  100. 00:00:00.000 : Chapter 01

  101. 00:09:55.386 : Chapter 02

  102. 00:18:11.465 : Chapter 03

  103. 00:27:51.795 : Chapter 04

  104. 00:36:17.091 : Chapter 05

  105. 00:47:07.074 : Chapter 06

  106. 00:56:43.900 : Chapter 07

  107. 01:06:21.852 : Chapter 08

  108. 01:13:35.160 : Chapter 09

  109. 01:23:41.516 : Chapter 10

  110. 01:38:39.038 : Chapter 11



文件下载


除非特别注明,本文『奉魔之名[中文字幕].Exorcismus.2010.1080p.BluRay.x265.10bit.DTS 4.20GB』来源于互联网机器人自动抓取,非本站原创。 浮游电影网不对本文拥有版权,如有侵犯,请联系邮箱:fuyouu#yandex.com[#换成@]投诉。我们会在15个工作日内删除。 但烦请转载时请标明出处:“本文转载于『浮游电影网』,原文地址:https://www.fuyouu.com/14450.html

评论吧骚年!

发表你的见解   

昵称*

E-mail*(建议输入,以便收到博主回复的提示邮件)

验证码*

您可以使用eMule或eMule Mod(Windows)、aMule(Win、Linux、Mac)等软件下载eD2k链接。。
eMule收藏集(.emulecollection)文件是您选中的所有链接的列表文件。eMule可以直接下载它们。
按住SHIFT键选择可以选中多个选择框。
可用文件名和大小选择器来选择文件。
文件名选择器帮您根据文件名称或后缀来选择文件。不分大小写。
符号使用:
和:空格( )、+
不包含:-
或:|
转义:一对英文引号("");
匹配开头:^
匹配结尾:$
例如:
选中所有名称中包含有“eMule”或“0.49c”字眼,但不包含有“exe”字眼的:emule|0.49c -exe
选中所有名称的开头是“eMule”,结尾是“0.49c”的:^emule 0.49c$
选中所有名称中带有“eMule 0.49c”的(必须是“eMule 0.49c”,中间没有别的字符,不能是“eMule fake 0.49c”),需要转义:"emule 0.49c"
大小选择器帮您根据文件大小选择文件。