当前位置: 首页 >> 欧美电影 >> 万里追踪[中文字幕].Man.Hunt.1941.1080p.BluRay.DTS.x265-10bit 8.14GB >> 正文

万里追踪[中文字幕].Man.Hunt.1941.1080p.BluRay.DTS.x265-10bit 8.14GB

2021年09月19日 13:27:40     电影发布:来源于网络     电影分类:欧美电影     评论(0)    

万里追踪[中文字幕].Man.Hunt.1941.1080p.BluRay.DTS.x265 10bit 8.14GB 惊悚片 剧情片 欧美电影  第1张

◎译 名 万里追踪 / 追杀刺客

◎片 名 Man Hunt

◎年 代 1941

◎产 地 美国

◎类 别 剧情 / 惊悚

◎语 言 英语 / 德语

◎上映日期 1941-06-13

◎IMDb链接 https://www.imdb.com/title/tt0033873/

◎豆瓣评分 7.0/10 (325人评价)

◎豆瓣链接 https://movie.douban.com/subject/1294828/

◎片 长 105 分钟

◎导 演 弗里茨·朗 Fritz Lang (id:1036593)

◎编 剧 达德利·尼柯尔斯 Dudley Nichols (id:1002964)

杰弗里·豪斯霍尔德 Geoffrey Household (id:1039245)

◎演 员 沃尔特·皮金 Walter Pidgeon (id:1027482)

琼·贝内特 Joan Bennett (id:1032234)

希瑟·撒切尔 Heather Thatcher (id:1150247)

路德维希·施托塞尔 Ludwig St?ssel (id:1156574)

罗迪·麦克道尔 Roddy McDowall (id:1049620)

约翰·卡拉丁 John Carradine (id:1054224)

乔治·桑德斯 George Sanders (id:1056113)

弗莱德里克·沃洛克 Frederick Worlock (id:1164449)

◎标 签 美国 / 弗里茨·朗 / FritzLang / Fritz_Lang / 美国电影 / 1940s / 二战 / 黑色电影

◎简 介

二次大战前夕,英国军官桑迪克(Walter Pidgeon 饰)潜伏希特勒的山中庄园行刺未果被捕,由于拒不承认自己受英国政府指使,桑迪克受尽折磨后被德军推下山崖。大难不死的桑迪克乘船回到英国,同时德国方面派出假扮桑迪克的军官与众眼线在全城追索他,德国政府亦向英国施压。

桑迪克在险象环生的亡命途中结识开朗直接的姑娘杰瑞(Joan Bennett 饰),后者被他吸引,并竭尽所能为他提供了帮助。桑迪克与杰瑞度过了一段短暂的纯真时光,然而危机四伏的情势下他并不能给予对方更多的幸福。德国人很快找到了桑迪克的藏身之处,并掳走了杰瑞,这让桑迪克面临的形势恶劣到了极点。

  1. ##### MediaInfo ######

  2. General

  3. Unique ID : 224710232558104229379310631092885384356 (0xA90D9DD77DC9F59E7646909F59CBECA4)

  4. Complete name : [email protected]

  5. Format : Matroska

  6. Format version : Version 4

  7. File size : 8.14 GiB

  8. Duration : 1 h 42 min

  9. Overall bit rate : 11.4 Mb/s

  10. Movie name : Man Hunt 1941 1080p BluRay DTS [email protected]

  11. Encoded date : UTC 2021-09-18 01:46:44

  12. Writing application : mkvmerge v38.0.0 ('The Silent Type') 64-bit

  13. Writing library : libebml v1.3.9 + libmatroska v1.5.2


  14. Video

  15. ID : 1

  16. Format : HEVC

  17. Format/Info : High Efficiency Video Coding

  18. Format profile : Main [email protected]@High

  19. Codec ID : V_MPEGH/ISO/HEVC

  20. Duration : 1 h 42 min

  21. Bit rate : 10.6 Mb/s

  22. Width : 1 440 pixels

  23. Height : 1 080 pixels

  24. Display aspect ratio : 4:3

  25. Frame rate mode : Constant

  26. Frame rate : 23.976 (24000/1001/53354) FPS

  27. Color space : YUV

  28. Chroma subsampling : 4:2:0

  29. Bit depth : 10 bits

  30. Bits/(Pixel*Frame) : 0.283

  31. Stream size : 7.56 GiB (93%)

  32. Title : @HDSky

  33. Writing library : x265 - H.265/HEVC codec

  34. Default : Yes

  35. Forced : No


  36. Audio

  37. ID : 2

  38. Format : DTS

  39. Format/Info : Digital Theater Systems

  40. Codec ID : A_DTS

  41. Duration : 1 h 42 min

  42. Bit rate mode : Constant

  43. Bit rate : 768 kb/s

  44. Channel(s) : 1 channel

  45. Channel layout : C

  46. Sampling rate : 48.0 kHz

  47. Frame rate : 93.750 FPS (512 SPF)

  48. Bit depth : 24 bits

  49. Compression mode : Lossy

  50. Stream size : 563 MiB (7%)

  51. Title : English

  52. Language : English

  53. Default : Yes

  54. Forced : No


  55. Text #1

  56. ID : 3

  57. Format : PGS

  58. Muxing mode : zlib

  59. Codec ID : S_HDMV/PGS

  60. Codec ID/Info : Picture based subtitle format used on BDs/HD-DVDs

  61. Duration : 1 h 41 min

  62. Bit rate : 32.3 kb/s

  63. Count of elements : 1704

  64. Stream size : 23.5 MiB (0%)

  65. Title : CHS

  66. Language : Chinese

  67. Default : Yes

  68. Forced : No


  69. Text #2

  70. ID : 4

  71. Format : PGS

  72. Muxing mode : zlib

  73. Codec ID : S_HDMV/PGS

  74. Codec ID/Info : Picture based subtitle format used on BDs/HD-DVDs

  75. Duration : 1 h 41 min

  76. Bit rate : 33.1 kb/s

  77. Count of elements : 1704

  78. Stream size : 24.0 MiB (0%)

  79. Title : CHT

  80. Language : Chinese

  81. Default : No

  82. Forced : No


  83. Menu

  84. 00:00:00.000 : en:Chapter 01

  85. 00:05:15.398 : en:Chapter 02

  86. 00:16:46.380 : en:Chapter 03

  87. 00:27:33.318 : en:Chapter 04

  88. 00:35:28.960 : en:Chapter 05

  89. 00:47:52.161 : en:Chapter 06

  90. 00:56:24.965 : en:Chapter 07

  91. 01:05:29.425 : en:Chapter 08

  92. 01:12:23.172 : en:Chapter 09

  93. 01:18:27.828 : en:Chapter 10

  94. 01:25:20.240 : en:Chapter 11

  95. 01:41:50.313 : en:Chapter 12


文件下载


除非特别注明,本文『万里追踪[中文字幕].Man.Hunt.1941.1080p.BluRay.DTS.x265-10bit 8.14GB』来源于互联网机器人自动抓取,非本站原创。 浮游电影网不对本文拥有版权,如有侵犯,请联系邮箱:fuyouu#yandex.com[#换成@]投诉。我们会在15个工作日内删除。 但烦请转载时请标明出处:“本文转载于『浮游电影网』,原文地址:https://www.fuyouu.com/14449.html

评论吧骚年!

发表你的见解   

昵称*

E-mail*(建议输入,以便收到博主回复的提示邮件)

验证码*

您可以使用eMule或eMule Mod(Windows)、aMule(Win、Linux、Mac)等软件下载eD2k链接。。
eMule收藏集(.emulecollection)文件是您选中的所有链接的列表文件。eMule可以直接下载它们。
按住SHIFT键选择可以选中多个选择框。
可用文件名和大小选择器来选择文件。
文件名选择器帮您根据文件名称或后缀来选择文件。不分大小写。
符号使用:
和:空格( )、+
不包含:-
或:|
转义:一对英文引号("");
匹配开头:^
匹配结尾:$
例如:
选中所有名称中包含有“eMule”或“0.49c”字眼,但不包含有“exe”字眼的:emule|0.49c -exe
选中所有名称的开头是“eMule”,结尾是“0.49c”的:^emule 0.49c$
选中所有名称中带有“eMule 0.49c”的(必须是“eMule 0.49c”,中间没有别的字符,不能是“eMule fake 0.49c”),需要转义:"emule 0.49c"
大小选择器帮您根据文件大小选择文件。