当前位置: 首页 >> 日韩电影 >> 秘密账号[中文字幕].Ura.Aka.L'Aventure.2021.1080p.BluRay.DTS.x265-10bit 6.08GB >> 正文

秘密账号[中文字幕].Ura.Aka.L'Aventure.2021.1080p.BluRay.DTS.x265-10bit 6.08GB

2021年09月19日 13:26:22     电影发布:来源于网络     电影分类:日韩电影     评论(0)    

秘密账号[中文字幕].Ura.Aka.LAventure.2021.1080p.BluRay.DTS.x265 10bit 6.08GB 剧情片 日韩电影  第1张

◎译 名 秘密账号 / 私慾帳號(台)

◎片 名 裏アカ

◎年 代 2020

◎产 地 日本

◎语 言 日语

◎上映日期 2021-04-02(日本)

◎IMDb链接 https://www.imdb.com/title/tt14662420/

◎豆瓣评分 5.4/10 (259人评价)

◎豆瓣链接 https://movie.douban.com/subject/35009761/

◎编 剧 高田亮 Ry? Takada (id:1345458)

◎演 员 泷内公美 Kumi Takiuchi (id:1367736)

神尾枫珠 Kamio Fūju (id:1373104)

市川知宏 Tomohiro Ichikawa (id:1313637)

浅野堇 Sumire (id:1368016)

田中要次 Y?ji Tanaka (id:1025561)

神户浩 Hiroshi Kanbe (id:1018934)

松浦祐也 Y?ya Matsuura (id:1322459)

仁科贵 Takashi Nishina (id:1349821)

布施绘里 Eri Fuse (id:1051850)

◎标 签 日本 / 情色 / 泷内公美 / 日本电影 / 2020 / 神尾楓珠 / 日影 / 2021

◎简 介

荣获日本《电影旬报》影后肯定的 泷内公美 ,继2020年《 火口的二人 》与 柄本佑 上演多场火辣性爱场面之后,这回再度情欲解放,在新片《 私欲帐号 》中偷偷开设「社群小帐」,并在当中上传诸多不露脸裸照与性爱影片,试图从爆红的按赞数中获得满足感。 也因为她在小帐中的活动力强又活跃,吸引到「国宝级帅哥」 神尾枫珠 主动私讯她出来见面,两人一见面就产生「人与人的联结」,也让泷内的角色因此陷入忌妒、背叛、情欲与谎言的漩涡当中。 对于再度接演如此具有挑战性的角色,泷内感性地表示:

「女主角的孤独,以及无法满足的日常生活,让身为女性的我,从首次读到剧本就产生强烈共鸣!」

社群全盛时代下,探究「何谓真正自我」的终极杰作《私欲帐号》,是日本「Tsutaya创作者计划」中的获奖作品,也是日本新锐导演 加藤卓哉 的首部剧情长片。 曾在木村大作、降旗康男、原田真人、成岛...

  1. ##### MediaInfo ######

  2. General

  3. Unique ID : 237410735482881082762457724189202597250 (0xB29BA4FB3C426587557979B0C66E4582)

  4. Complete name : Ura.Aka.L'[email protected]

  5. Format : Matroska

  6. Format version : Version 4

  7. File size : 6.08 GiB

  8. Duration : 1 h 41 min

  9. Overall bit rate : 8 553 kb/s

  10. Movie name : Ura Aka L'Aventure 2021 1080p BluRay DTS [email protected]

  11. Encoded date : UTC 2021-09-18 04:57:31

  12. Writing application : mkvmerge v38.0.0 ('The Silent Type') 64-bit

  13. Writing library : libebml v1.3.9 + libmatroska v1.5.2


  14. Video

  15. ID : 1

  16. Format : HEVC

  17. Format/Info : High Efficiency Video Coding

  18. Format profile : Main [email protected]@High

  19. Codec ID : V_MPEGH/ISO/HEVC

  20. Duration : 1 h 41 min

  21. Bit rate : 7 026 kb/s

  22. Width : 1 920 pixels

  23. Height : 1 036 pixels

  24. Display aspect ratio : 1.85:1

  25. Frame rate mode : Constant

  26. Frame rate : 23.976 (24000/1001/53354) FPS

  27. Color space : YUV

  28. Chroma subsampling : 4:2:0

  29. Bit depth : 10 bits

  30. Bits/(Pixel*Frame) : 0.147

  31. Stream size : 4.99 GiB (82%)

  32. Title : [email protected]

  33. Writing library : x265 - H.265/HEVC codec

  34. Default : Yes

  35. Forced : No


  36. Audio

  37. ID : 2

  38. Format : DTS

  39. Format/Info : Digital Theater Systems

  40. Codec ID : A_DTS

  41. Duration : 1 h 41 min

  42. Bit rate mode : Constant

  43. Bit rate : 1 509 kb/s

  44. Channel(s) : 6 channels

  45. Channel layout : C L R Ls Rs LFE

  46. Sampling rate : 48.0 kHz

  47. Frame rate : 93.750 FPS (512 SPF)

  48. Bit depth : 24 bits

  49. Compression mode : Lossy

  50. Stream size : 1.07 GiB (18%)

  51. Title : Japanese

  52. Language : Japanese

  53. Default : Yes

  54. Forced : No


  55. Text #1

  56. ID : 3

  57. Format : PGS

  58. Muxing mode : zlib

  59. Codec ID : S_HDMV/PGS

  60. Codec ID/Info : Picture based subtitle format used on BDs/HD-DVDs

  61. Duration : 1 h 31 min

  62. Bit rate : 17.2 kb/s

  63. Count of elements : 1444

  64. Stream size : 11.2 MiB (0%)

  65. Title : CHS

  66. Language : Chinese

  67. Default : Yes

  68. Forced : No


  69. Text #2

  70. ID : 4

  71. Format : PGS

  72. Muxing mode : zlib

  73. Codec ID : S_HDMV/PGS

  74. Codec ID/Info : Picture based subtitle format used on BDs/HD-DVDs

  75. Duration : 1 h 31 min

  76. Bit rate : 17.3 kb/s

  77. Count of elements : 1444

  78. Stream size : 11.3 MiB (0%)

  79. Title : CHS

  80. Language : Chinese

  81. Default : No

  82. Forced : No


  83. Menu

  84. 00:00:00.000 : en:Chapter 01

  85. 00:07:19.022 : en:Chapter 02

  86. 00:14:42.006 : en:Chapter 03

  87. 00:21:29.538 : en:Chapter 04

  88. 00:31:45.737 : en:Chapter 05

  89. 00:40:23.755 : en:Chapter 06

  90. 00:49:37.516 : en:Chapter 07

  91. 01:01:38.945 : en:Chapter 08

  92. 01:10:51.539 : en:Chapter 09

  93. 01:21:25.589 : en:Chapter 10

  94. 01:33:06.998 : en:Chapter 11

  95. 01:38:17.683 : en:Chapter 12



文件下载


除非特别注明,本文『秘密账号[中文字幕].Ura.Aka.L'Aventure.2021.1080p.BluRay.DTS.x265-10bit 6.08GB』来源于互联网机器人自动抓取,非本站原创。 浮游电影网不对本文拥有版权,如有侵犯,请联系邮箱:fuyouu#yandex.com[#换成@]投诉。我们会在15个工作日内删除。 但烦请转载时请标明出处:“本文转载于『浮游电影网』,原文地址:https://www.fuyouu.com/14448.html

评论吧骚年!

发表你的见解   

昵称*

E-mail*(建议输入,以便收到博主回复的提示邮件)

验证码*

您可以使用eMule或eMule Mod(Windows)、aMule(Win、Linux、Mac)等软件下载eD2k链接。。
eMule收藏集(.emulecollection)文件是您选中的所有链接的列表文件。eMule可以直接下载它们。
按住SHIFT键选择可以选中多个选择框。
可用文件名和大小选择器来选择文件。
文件名选择器帮您根据文件名称或后缀来选择文件。不分大小写。
符号使用:
和:空格( )、+
不包含:-
或:|
转义:一对英文引号("");
匹配开头:^
匹配结尾:$
例如:
选中所有名称中包含有“eMule”或“0.49c”字眼,但不包含有“exe”字眼的:emule|0.49c -exe
选中所有名称的开头是“eMule”,结尾是“0.49c”的:^emule 0.49c$
选中所有名称中带有“eMule 0.49c”的(必须是“eMule 0.49c”,中间没有别的字符,不能是“eMule fake 0.49c”),需要转义:"emule 0.49c"
大小选择器帮您根据文件大小选择文件。