当前位置: 首页 >> 港台电影 >> 大内密探零零发[国粤语配音/中文字幕].Forbidden.City.Cop.1996.1080p.BluRay.x265.10bit.DTS.2Audio 5.64GB >> 正文

大内密探零零发[国粤语配音/中文字幕].Forbidden.City.Cop.1996.1080p.BluRay.x265.10bit.DTS.2Audio 5.64GB

2021年09月19日 13:24:11     电影发布:来源于网络     电影分类:港台电影     评论(0)    

大内密探零零发[国粤语配音/中文字幕].Forbidden.City.Cop.1996.1080p.BluRay.x265.10bit.DTS.2Audio 5.64GB 古装片 爱情片 喜剧片 动作片 港台电影  第1张

◎译 名 大内密探零零发 / 鹿鼎大帝(台) / Forbidden City Cop / Dai lap mat tam 008

◎片 名 大內密探零零發

◎年 代 1996

◎产 地 中国香港

◎类 别 喜剧 / 动作 / 爱情 / 古装

◎语 言 粤语

◎上映日期 1996-02-16(中国香港)

◎IMDb链接 https://www.imdb.com/title/tt0116014/

◎豆瓣评分 7.9/10 (322688人评价)

◎豆瓣链接 https://movie.douban.com/subject/1329936/

◎片 长 89分钟

◎导 演 谷德昭 Vincent Kok (id:1025526)

周星驰 Stephen Chow (id:1048026)

◎编 剧 劳文生 Man Sang Lo (id:1322128)

谷德昭 Vincent Kok (id:1025526)

周星驰 Stephen Chow (id:1048026)

◎演 员 周星驰 Stephen Chow (id:1048026)

刘嘉玲 Carina Lau (id:1036905)

李若彤 Carman Lee (id:1023476)

罗家英 Kar-Ying Law (id:1108968)

张达明 Tat-Ming Cheung (id:1274433)

刘以达 Tats Lau (id:1034328)

李力持 Lik-Chi Lee (id:1274246)

江欣燕 Elvina Kong (id:1104138)

苑琼丹 King-Tan Yuen (id:1274445)

朱咪咪 Mimi Chu (id:1275715)

李健仁 Kin-Yan Lee (id:1315575)

袁祥仁 Cheung-Yan Yuen (id:1301574)

袁信义 Shun-Yee Yuen (id:1301576)

植敬雯 King-Man Chik (id:1315881)

潘恒生 Hang-Sang Poon (id:1294721)

谷德昭 Vincent Kok (id:1025526)

文隽 Manfred Wong (id:1274823)

黄老邪 Quinton Wong (id:1345683)

黄一飞 Yut Fei Wong (id:1301215)

查尔斯·沈 Charles Shen (id:1345685)

吴育枢 Jackson Ng Yuk-Sue (id:1361260)

王均康 Kwan Hong Wong (id:1358028)

陈剑云 Kim-Wan Chan (id:1361831)

欧锦棠 Stephen Au (id:1275712)

叶伟信 Wilson Yip (id:1274472)

黄志强 Kirk Wong (id:1301193)

英德拉·利奇 Indra Leech (id:1345681)

王英杰 Ying Git Wong (id:1342034)

黄智强 Ji Keung Wong (id:1431206)

谭镇渡 Tony Tam Chun-To (id:1417488)

王晶 Jing Wong (id:1274331)

向华强 Charles Heung (id:1037691)

馮鳳珍 Rita Fung (id:1441554)

刘以达 Tats Lau (id:1034328)

顾嘉辉 Joseph Koo (id:1017256)

商易 Yi Shang (id:1414560)

邝志良 Chi-Leung Kwong (id:1289164)

何剑雄 Cyrus Ho (id:1286709)

刘嘉玲 Carina Lau (id:1036905)

张叔平 William Chang (id:1274369)

张世宏 Silver Cheung (id:1318916)

关莉娜 Lee-na Kwan (id:1289154)

田启文 Kai Man Tin (id:1315882)

梁力之 Lik-Chi Leung (id:1433564)

◎标 签 喜剧 / 香港 / 搞笑 / 星爷 / 经典 / 无厘头 / 古装 / 1996

◎简 介

零零恭、零零喜、零零发(周星驰 饰)、零零财是宫廷四大高手,专职保卫皇帝(张达明 饰)的安全。虽号称四大高手之一,零零发实际上只会搞些小发明完全不会武功,某次因为未完成皇帝交办的捉拿江湖四大怪杰的任务,他被开除出宫。回家后,零零发开了一家妇科诊所,时常会用一些小发明讨得老婆(刘嘉玲 饰)心花怒放,日子也算怡然自乐。 金国以“天外飞仙”尸体为由将皇帝从宫中骗出,并伺机杀死了紧跟皇帝的三大高手,关键时刻,零零发用他发明的“直升机”和“机关枪”救皇帝一命。不死心的敌手随后派来名妓琴操(李若彤 饰)引诱零零发,零零发与老婆将计就计演起双簧。

  1. ##### MediaInfo ######

  2. General

  3. Unique ID : 125246158080172888853137697402109666662 (0x5E39885A379EBF32053B7DB7EA71A566)

  4. Complete name : F[email protected]BBQDDQ.COM.mkv

  5. Format : Matroska

  6. Format version : Version 4

  7. File size : 5.64 GiB

  8. Duration : 1 h 28 min

  9. Overall bit rate : 9 088 kb/s

  10. Movie name : Forbidden City Cop 1996

  11. Encoded date : UTC 2021-09-17 03:53:11

  12. Writing application : mkvmerge v61.0.0 ('So') 64-bit

  13. Writing library : libebml v1.4.2 + libmatroska v1.6.4

  14. Cover : Yes

  15. Attachments : cover.jpg


  16. Video

  17. ID : 1

  18. Format : HEVC

  19. Format/Info : High Efficiency Video Coding

  20. Format profile : Main [email protected]@Main

  21. Codec ID : V_MPEGH/ISO/HEVC

  22. Duration : 1 h 28 min

  23. Bit rate : 6 880 kb/s

  24. Width : 1 920 pixels

  25. Height : 1 080 pixels

  26. Display aspect ratio : 16:9

  27. Frame rate mode : Constant

  28. Frame rate : 24.000 FPS

  29. Color space : YUV

  30. Chroma subsampling : 4:2:0

  31. Bit depth : 10 bits

  32. Bits/(Pixel*Frame) : 0.138

  33. Stream size : 4.27 GiB (76%)

  34. Writing library : x265 3.5+2-g2b25c9ba0+45:[Windows][GCC 10.2.0][64 bit] Yuuki 10bit+8bit+12bit

  35. Encoding settings : rc=crf / crf=18.5000 / qcomp=0.60 / qpstep=4 / stats-write=0 / stats-read=0 / no-lossless / no-cu-lossless / aq-mode=3 / aq-strength=0.90 / cbqpoffs=0 / crqpoffs=0 / ipratio=1.40 / pbratio=1.30 / psy-rd=2.00 / psy-rdoq=0.00 / deblock=0:0 / ref=6 / limit-refs=1 / no-limit-modes / bframes=8 / b-adapt=2 / bframe-bias=0 / b-pyramid / b-intra / weightp / weightb / min-keyint=24 / max-keyint=240 / rc-lookahead=24 / gop-lookahead=0 / NTMzNTQ=uuDQuD2mJt9fsCf / scenecut=40 / hist-scenecut=0 / radl=0 / max-cu-size=64 / min-cu-size=8 / me=3 / subme=7 / merange=48 / rdoq-level=0 / rd=4 / rdpenalty=0 / dynamic-rd=0.00 / no-rd-refine / ----- / cutree / sao / no-rect / no-amp / no-open-gop / wpp / no-pmode / no-pme / no-psnr / no-ssim / nr-intra=0 / nr-inter=0 / no-constrained-intra / no-strong-intra-smoothing / max-tu-size=32 / tu-inter-depth=1 / tu-intra-depth=1 / limit-tu=0 / qg-size=32 / qpmax=69 / qpmin=0 / ----- / cpuid=533541111039 / frame-threads=4 / numa-pools=+ / log-level=2 / input-csp=1 / input-res=1920x1080 / interlace=0 / level-idc=0 / high-tier=1 / uhd-bd=0 / no-allow-non-conformance / repeat-headers / aud / no-hrd / info / hash=0 / no-temporal-layers / lookahead-slices=0 / no-splice / no-intra-refresh / no-ssim-rd / signhide / no-tskip / max-merge=3 / temporal-mvp / no-frame-dup / no-hme / no-analyze-src-pics / no-sao-non-deblock / selective-sao=4 / early-skip / rskip / no-fast-intra / no-tskip-fast / no-splitrd-skip / zone-count=0 / no-strict-cbr / no-rc-grain / no-const-vbv / sar=0 / overscan=0 / videoformat=5 / range=0 / colorprim=2 / transfer=2 / colormatrix=2 / chromaloc=0 / display-window=0 / cll=0,0 / min-luma=0 / max-luma=1023 / log2-max-poc-lsb=8 / vui-timing-info / vui-hrd-info / slices=1 / no-opt-qp-pps / no-opt-ref-list-length-pps / no-multi-pass-opt-rps / scenecut-bias=0.05 / hist-threshold=0.03 / no-opt-cu-delta-qp / no-aq-motion / no-hdr10 / no-hdr10-opt / no-dhdr10-opt / no-idr-recovery-sei / analysis-reuse-level=0 / analysis-save-reuse-level=0 / analysis-load-reuse-level=0 / scale-factor=0 / refine-intra=0 / refine-inter=0 / refine-mv=1 / refine-ctu-distortion=0 / no-limit-sao / ctu-info=0 / no-lowpass-dct / refine-analysis-type=0 / copy-pic=1 / max-ausize-factor=1.0 / no-dynamic-refine / no-single-sei / no-hevc-aq / no-svt / no-field / qp-adaptation-range=1.00 / scenecut-aware-qp=0conformance-window-offsets / right=0 / bottom=0 / NTMzNTQ= / decoder-max-rate=0 / no-vbv-live-multi-pass

  36. Default : Yes

  37. Forced : No


  38. Audio #1

  39. ID : 2

  40. Format : DTS

  41. Format/Info : Digital Theater Systems

  42. Codec ID : A_DTS

  43. Duration : 1 h 28 min

  44. Bit rate mode : Constant

  45. Bit rate : 1 536 kb/s

  46. Channel(s) : 6 channels

  47. Channel layout : C L R Ls Rs LFE

  48. Sampling rate : 48.0 kHz

  49. Frame rate : 93.750 FPS (512 SPF)

  50. Bit depth : 16 bits

  51. Compression mode : Lossy

  52. Stream size : 975 MiB (17%)

  53. Title : Cantonese

  54. Language : Chinese

  55. Default : Yes

  56. Forced : No


  57. Audio #2

  58. ID : 3

  59. Format : AC-3

  60. Format/Info : Audio Coding 3

  61. Commercial name : Dolby Digital

  62. Codec ID : A_AC3

  63. Duration : 1 h 28 min

  64. Bit rate mode : Constant

  65. Bit rate : 640 kb/s

  66. Channel(s) : 6 channels

  67. Channel layout : L R C LFE Ls Rs

  68. Sampling rate : 48.0 kHz

  69. Frame rate : 31.250 FPS (1536 SPF)

  70. Compression mode : Lossy

  71. Stream size : 406 MiB (7%)

  72. Title : Mandarin

  73. Language : Chinese

  74. Service kind : Complete Main

  75. Default : Yes

  76. Forced : No


  77. Text #1

  78. ID : 4

  79. Format : PGS

  80. Muxing mode : zlib

  81. Codec ID : S_HDMV/PGS

  82. Codec ID/Info : Picture based subtitle format used on BDs/HD-DVDs

  83. Duration : 1 h 28 min

  84. Bit rate : 46.2 kb/s

  85. Count of elements : 2702

  86. Stream size : 29.1 MiB (1%)

  87. Title : cht

  88. Language : Chinese

  89. Default : No

  90. Forced : No


  91. Text #2

  92. ID : 5

  93. Format : PGS

  94. Muxing mode : zlib

  95. Codec ID : S_HDMV/PGS

  96. Codec ID/Info : Picture based subtitle format used on BDs/HD-DVDs

  97. Duration : 1 h 28 min

  98. Bit rate : 40.4 kb/s

  99. Count of elements : 2702

  100. Stream size : 25.5 MiB (0%)

  101. Language : English

  102. Default : No

  103. Forced : No


  104. Menu

  105. 00:00:00.000 : Chapter 01

  106. 00:06:13.541 : Chapter 02

  107. 00:12:46.625 : Chapter 03

  108. 00:16:10.666 : Chapter 04

  109. 00:21:50.625 : Chapter 05

  110. 00:23:42.666 : Chapter 06

  111. 00:29:23.750 : Chapter 07

  112. 00:32:56.833 : Chapter 08

  113. 00:36:22.916 : Chapter 09

  114. 00:39:31.000 : Chapter 10

  115. 00:44:12.375 : Chapter 11

  116. 00:49:20.875 : Chapter 12

  117. 00:54:20.583 : Chapter 13

  118. 00:56:00.708 : Chapter 14

  119. 01:00:39.250 : Chapter 15

  120. 01:06:12.750 : Chapter 16

  121. 01:09:21.750 : Chapter 17

  122. 01:14:57.791 : Chapter 18

  123. 01:21:17.958 : Chapter 19

  124. 01:25:58.416 : Chapter 20



文件下载


除非特别注明,本文『大内密探零零发[国粤语配音/中文字幕].Forbidden.City.Cop.1996.1080p.BluRay.x265.10bit.DTS.2Audio 5.64GB』来源于互联网机器人自动抓取,非本站原创。 浮游电影网不对本文拥有版权,如有侵犯,请联系邮箱:fuyouu#yandex.com[#换成@]投诉。我们会在15个工作日内删除。 但烦请转载时请标明出处:“本文转载于『浮游电影网』,原文地址:https://www.fuyouu.com/14447.html

评论吧骚年!

发表你的见解   

昵称*

E-mail*(建议输入,以便收到博主回复的提示邮件)

验证码*

您可以使用eMule或eMule Mod(Windows)、aMule(Win、Linux、Mac)等软件下载eD2k链接。。
eMule收藏集(.emulecollection)文件是您选中的所有链接的列表文件。eMule可以直接下载它们。
按住SHIFT键选择可以选中多个选择框。
可用文件名和大小选择器来选择文件。
文件名选择器帮您根据文件名称或后缀来选择文件。不分大小写。
符号使用:
和:空格( )、+
不包含:-
或:|
转义:一对英文引号("");
匹配开头:^
匹配结尾:$
例如:
选中所有名称中包含有“eMule”或“0.49c”字眼,但不包含有“exe”字眼的:emule|0.49c -exe
选中所有名称的开头是“eMule”,结尾是“0.49c”的:^emule 0.49c$
选中所有名称中带有“eMule 0.49c”的(必须是“eMule 0.49c”,中间没有别的字符,不能是“eMule fake 0.49c”),需要转义:"emule 0.49c"
大小选择器帮您根据文件大小选择文件。