当前位置: 首页 >> 欧美电影 >> 狼人游戏[中文字幕].Werewolves.Within.2021.1080p.BluRay.x265.10bit.MNHD 5.95GB >> 正文

狼人游戏[中文字幕].Werewolves.Within.2021.1080p.BluRay.x265.10bit.MNHD 5.95GB

2021年09月19日 13:19:33     电影发布:来源于网络     电影分类:欧美电影     评论(0)    

狼人游戏[中文字幕].Werewolves.Within.2021.1080p.BluRay.x265.10bit.MNHD 5.95GB 恐怖片 喜剧片 欧美电影  第1张

◎译 名 狼人游戏 / 狼人附身

◎片 名 Werewolves Within

◎年 代 2021

◎产 地 美国

◎类 别 喜剧 / 恐怖

◎语 言 英语

◎上映日期 2021-06-25(美国) / 2021-07-02(美国网络)

◎IMDb链接 https://www.imdb.com/title/tt9288692/

◎豆瓣评分 5.4/10 (225人评价)

◎豆瓣链接 https://movie.douban.com/subject/34967892/

◎片 长 97分钟

◎导 演 乔什·鲁本 Josh Ruben (id:1259984)

◎编 剧 米什娜·沃尔夫 Mishna Wolff (id:1459051)

◎演 员 山姆·理查森 Sam Richardson (id:1345536)

米拉娜·薇恩翠 Milana Vayntrub (id:1342012)

乔治·巴兹尔 George Basil (id:1407910)

莎拉·伯恩斯 Sarah Burns (id:1352035)

迈克尔·切鲁斯 Michael Chernus (id:1335067)

凯瑟琳·科廷 Catherine Curtin (id:1333381)

韦恩·杜瓦尔 Wayne Duvall (id:1019154)

哈维·吉兰 Harvey Guillen (id:1362735)

瑞贝卡·亨德森 Rebecca Henderson (id:1261734)

夏恩·杰克逊 Cheyenne Jackson (id:1238894)

麦可拉·沃金丝 Michaela Watkins (id:1185170)

格伦·弗莱舍尔 Glenn Fleshler (id:1346468)

帕特里克·M·沃尔什 Patrick M. Walsh (id:1381558)

安娜·克鲁格 Anni Krueger (id:1459052)

利兹 Ritz (id:1459401)

◎标 签 恐怖 / 喜剧 / 美国 / 惊悚 / 2021 / 搞笑 / 育碧 / 电影

◎简 介

故事发生在 一个小镇上。一场暴风雪把一群居民困在当地的旅店里,新到达的护林员芬恩和邮政员工塞西莉维持着秩序,他们将揭开一个神秘生物背后的真相,这个神秘生物已经开始威胁到了社区安全。

  1. ##### MediaInfo ######

  2. General

  3. Unique ID : 24353083159723378035709230097173196912 (0x12523BB39EEECE7A10863FED2BF23070)

  4. Complete name : [email protected].COM.mkv

  5. Format : Matroska

  6. Format version : Version 4

  7. File size : 5.95 GiB

  8. Duration : 1 h 36 min

  9. Overall bit rate : 8 818 kb/s

  10. Movie name : [email protected].COM

  11. Encoded date : UTC 2021-09-18 00:56:44

  12. Writing application : mkvmerge v61.0.0 ('So') 64-bit

  13. Writing library : libebml v1.4.2 + libmatroska v1.6.4


  14. Video

  15. ID : 1

  16. Format : HEVC

  17. Format/Info : High Efficiency Video Coding

  18. Format profile : Main [email protected]@High

  19. Codec ID : V_MPEGH/ISO/HEVC

  20. Duration : 1 h 36 min

  21. Bit rate : 8 176 kb/s

  22. Width : 1 920 pixels

  23. Height : 804 pixels

  24. Display aspect ratio : 2.40:1

  25. Frame rate mode : Constant

  26. Frame rate : 23.976 (24000/1001/53354) FPS

  27. Color space : YUV

  28. Chroma subsampling : 4:2:0

  29. Bit depth : 10 bits

  30. Bits/(Pixel*Frame) : 0.221

  31. Stream size : 5.52 GiB (93%)

  32. Writing library : x265 3.5+2-g2b25c9ba0+45:[Windows][GCC 10.2.0][64 bit] Yuuki 10bit

  33. Encoding settings : rc=crf / crf=19.0000 / qcomp=0.70 / qpstep=4 / stats-write=0 / stats-read=0 / vbv-maxrate=100000 / vbv-bufsize=100000 / vbv-init=0.9 / min-vbv-fullness=50.0 / max-vbv-fullness=80.0 / crf-max=0.0 / crf-min=0.0 / no-lossless / no-cu-lossless / aq-mode=1 / aq-strength=0.90 / cbqpoffs=0 / crqpoffs=0 / ipratio=1.40 / pbratio=1.30 / psy-rd=2.00 / psy-rdoq=5.00 / deblock=-1:-1 / ref=5 / limit-refs=0 / no-limit-modes / bframes=16 / b-adapt=2 / bframe-bias=0 / b-pyramid / b-intra / weightp / weightb / min-keyint=23 / max-keyint=250 / rc-lookahead=60 / gop-lookahead=0 / NTMzNTQ=uuDQuD2mJt9fsCf / scenecut=40 / hist-scenecut=0 / radl=0 / max-cu-size=32 / min-cu-size=8 / me=3 / subme=5 / merange=57 / rdoq-level=2 / rd=4 / rdpenalty=0 / dynamic-rd=0.00 / no-rd-refine / ----- / no-cutree / no-sao / no-rect / no-amp / no-open-gop / wpp / no-pmode / no-pme / no-psnr / no-ssim / nr-intra=0 / nr-inter=0 / no-constrained-intra / no-strong-intra-smoothing / max-tu-size=32 / tu-inter-depth=4 / tu-intra-depth=4 / limit-tu=0 / qg-size=32 / qpmax=69 / qpmin=0 / ----- / cpuid=533541111039 / frame-threads=5 / numa-pools=24,24 / log-level=2 / input-csp=1 / input-res=1920x804 / interlace=0 / level-idc=0 / high-tier=1 / uhd-bd=0 / no-allow-non-conformance / no-repeat-headers / no-aud / no-hrd / info / hash=0 / no-temporal-layers / lookahead-slices=0 / no-splice / no-intra-refresh / no-ssim-rd / signhide / no-tskip / max-merge=5 / temporal-mvp / no-frame-dup / no-hme / no-analyze-src-pics / no-sao-non-deblock / selective-sao=0 / no-early-skip / no-rskip / no-fast-intra / no-tskip-fast / no-splitrd-skip / zone-count=0 / no-strict-cbr / no-rc-grain / no-const-vbv / sar=0 / overscan=0 / videoformat=5 / range=0 / colorprim=1 / transfer=1 / colormatrix=1 / chromaloc=0 / display-window=0 / cll=0,0 / min-luma=0 / max-luma=1023 / log2-max-poc-lsb=8 / vui-timing-info / vui-hrd-info / slices=1 / no-opt-qp-pps / no-opt-ref-list-length-pps / no-multi-pass-opt-rps / scenecut-bias=0.05 / hist-threshold=0.03 / no-opt-cu-delta-qp / no-aq-motion / no-hdr10 / no-hdr10-opt / no-dhdr10-opt / no-idr-recovery-sei / analysis-reuse-level=0 / analysis-save-reuse-level=0 / analysis-load-reuse-level=0 / scale-factor=0 / refine-intra=0 / refine-inter=0 / refine-mv=1 / refine-ctu-distortion=0 / no-limit-sao / ctu-info=0 / no-lowpass-dct / refine-analysis-type=0 / copy-pic=1 / max-ausize-factor=1.0 / no-dynamic-refine / no-single-sei / no-hevc-aq / no-svt / no-field / qp-adaptation-range=1.00 / scenecut-aware-qp=0conformance-window-offsets / right=0 / bottom=0 / NTMzNTQ= / decoder-max-rate=0 / no-vbv-live-multi-pass

  34. Default : Yes

  35. Forced : No

  36. Color range : Limited

  37. Color primaries : BT.709

  38. Transfer characteristics : BT.709

  39. Matrix coefficients : BT.709


  40. Audio

  41. ID : 2

  42. Format : AC-3

  43. Format/Info : Audio Coding 3

  44. Commercial name : Dolby Digital

  45. Codec ID : A_AC3

  46. Duration : 1 h 36 min

  47. Bit rate mode : Constant

  48. Bit rate : 640 kb/s

  49. Channel(s) : 6 channels

  50. Channel layout : L R C LFE Ls Rs

  51. Sampling rate : 48.0 kHz

  52. Frame rate : 31.250 FPS (1536 SPF)

  53. Compression mode : Lossy

  54. Stream size : 442 MiB (7%)

  55. Language : English

  56. Service kind : Complete Main

  57. Default : Yes

  58. Forced : No


  59. Text #1

  60. ID : 3

  61. Format : UTF-8

  62. Codec ID : S_TEXT/UTF8

  63. Codec ID/Info : UTF-8 Plain Text

  64. Duration : 1 h 27 min

  65. Bit rate : 78 b/s

  66. Count of elements : 1377

  67. Stream size : 50.4 KiB (0%)

  68. Title : chs

  69. Language : Chinese

  70. Default : Yes

  71. Forced : No


  72. Text #2

  73. ID : 4

  74. Format : UTF-8

  75. Codec ID : S_TEXT/UTF8

  76. Codec ID/Info : UTF-8 Plain Text

  77. Duration : 1 h 31 min

  78. Bit rate : 83 b/s

  79. Count of elements : 1429

  80. Stream size : 56.3 KiB (0%)

  81. Language : English

  82. Default : No

  83. Forced : No


  84. Menu

  85. 00:00:00.000 : Chapter 01

  86. 00:09:32.489 : Chapter 02

  87. 00:17:22.833 : Chapter 03

  88. 00:26:47.397 : Chapter 04

  89. 00:35:09.566 : Chapter 05

  90. 00:42:14.824 : Chapter 06

  91. 00:51:49.606 : Chapter 07

  92. 01:02:56.439 : Chapter 08

  93. 01:12:04.195 : Chapter 09

  94. 01:19:09.036 : Chapter 10

  95. 01:23:39.932 : Chapter 11

  96. 01:30:17.329 : Chapter 12


文件下载


除非特别注明,本文『狼人游戏[中文字幕].Werewolves.Within.2021.1080p.BluRay.x265.10bit.MNHD 5.95GB』来源于互联网机器人自动抓取,非本站原创。 浮游电影网不对本文拥有版权,如有侵犯,请联系邮箱:fuyouu#yandex.com[#换成@]投诉。我们会在15个工作日内删除。 但烦请转载时请标明出处:“本文转载于『浮游电影网』,原文地址:https://www.fuyouu.com/14443.html

评论吧骚年!

发表你的见解   

昵称*

E-mail*(建议输入,以便收到博主回复的提示邮件)

验证码*

您可以使用eMule或eMule Mod(Windows)、aMule(Win、Linux、Mac)等软件下载eD2k链接。。
eMule收藏集(.emulecollection)文件是您选中的所有链接的列表文件。eMule可以直接下载它们。
按住SHIFT键选择可以选中多个选择框。
可用文件名和大小选择器来选择文件。
文件名选择器帮您根据文件名称或后缀来选择文件。不分大小写。
符号使用:
和:空格( )、+
不包含:-
或:|
转义:一对英文引号("");
匹配开头:^
匹配结尾:$
例如:
选中所有名称中包含有“eMule”或“0.49c”字眼,但不包含有“exe”字眼的:emule|0.49c -exe
选中所有名称的开头是“eMule”,结尾是“0.49c”的:^emule 0.49c$
选中所有名称中带有“eMule 0.49c”的(必须是“eMule 0.49c”,中间没有别的字符,不能是“eMule fake 0.49c”),需要转义:"emule 0.49c"
大小选择器帮您根据文件大小选择文件。