当前位置: 首页 >> 欧美电影 >> 笑面人[中文字幕].The.Man.Who.Laughs.1928.1080p.BluRay.x265.10bit.FLAC.2.0.2Audio 9.75GB >> 正文

笑面人[中文字幕].The.Man.Who.Laughs.1928.1080p.BluRay.x265.10bit.FLAC.2.0.2Audio 9.75GB

2021年09月19日 13:18:08     电影发布:来源于网络     电影分类:欧美电影     评论(0)    

笑面人[中文字幕].The.Man.Who.Laughs.1928.1080p.BluRay.x265.10bit.FLAC.2.0.2Audio 9.75GB 悬疑片 恐怖片 爱情片 惊悚片 剧情片 欧美电影  第1张

◎译 名 笑面人 / L'HOMME QUI RIT / 笑声鸳影

◎片 名 The Man Who Laughs

◎年 代 1928

◎产 地 美国

◎类 别 剧情 / 爱情 / 悬疑 / 惊悚 / 恐怖

◎语 言 English / 英语

◎上映日期 1928-12-07

◎IMDb链接 https://www.imdb.com/title/tt0019130/

◎豆瓣评分 8.6/10 (2120人评价)

◎豆瓣链接 https://movie.douban.com/subject/1948732/

◎片 长 110 分钟

◎导 演 保罗·莱尼 Paul Leni (id:1010166)

◎编 剧 J·格拉布·亚历山大 J. Grubb Alexander (id:1017203)

维克多·雨果 Victor Hugo (id:1032739)

◎演 员 约瑟芬·克罗韦尔 Josephine Crowell (id:1077336)

乔治·西格曼 George Siegmann (id:1008138)

萨姆·德·格拉斯 Sam De Grasse (id:1087711)

斯图尔特·霍姆斯 Stuart Holmes (id:1091930)

塞萨雷·格拉维纳 Cesare Gravina (id:1097823)

布兰登·赫斯特 Brandon Hurst (id:1112525)

奥尔加·巴古拉诺娃 Olga Baclanova (id:1023306)

玛丽·菲尔宾 Mary Philbin (id:1009971)

康拉德·韦特 Conrad Veidt (id:1007139)

查理·普菲 Charles Puffy (id:1112576)

卡尔·莱姆勒 Carl Laemmle (id:1016860)

◎标 签 默片 / 美国 / 黑白 / 经典 / 小说改编 / 恐怖 / 1920s / 美国电影

◎简 介

改编自维克多.雨果(Victor Hugo)小说"笑面人(L'Homme qui rit,1869)"。

主人公格温普兰是贵族后裔,从小落入人贩子之手,被毁容摧残,脸上始终像在怪笑。好心的江湖艺人于苏斯把他收为义子,并把格温普兰从雪地上救起的盲姑娘蒂也收养了下来。他们几个四海飘泊,靠卖艺为生。后来由于偶然的因素和英国政坛的需要,格温普兰得以重获爵位,但他拒绝了这一肮脏的恩赐,宁愿回到他的患难伙伴那里;这时蒂已身患重病。在盲姑娘离开人世后,格温普兰悲痛万分,投海自杀。

  1. ##### MediaInfo ######

  2. General

  3. Unique ID : 69031721050262834376361062282169429742 (0x33EF069F4E8A2572F093F41504A02EEE)

  4. Complete name : The.Ma[email protected]BBQDDQ.COM.mkv

  5. Format : Matroska

  6. Format version : Version 4

  7. File size : 9.75 GiB

  8. Duration : 1 h 52 min

  9. Overall bit rate mode : Variable

  10. Overall bit rate : 12.3 Mb/s

  11. Movie name : THE MAN WHO LAUGHS

  12. Encoded date : UTC 2021-09-17 19:58:14

  13. Writing application : mkvmerge v61.0.0 ('So') 64-bit

  14. Writing library : libebml v1.4.2 + libmatroska v1.6.4

  15. Cover : Yes

  16. Attachments : cover.jpg / WenQuanWeiMiHei-1.ttf


  17. Video

  18. ID : 1

  19. Format : HEVC

  20. Format/Info : High Efficiency Video Coding

  21. Format profile : Main [email protected]@Main

  22. Codec ID : V_MPEGH/ISO/HEVC

  23. Duration : 1 h 50 min

  24. Bit rate : 10.0 Mb/s

  25. Width : 1 296 pixels

  26. Height : 1 080 pixels

  27. Display aspect ratio : 1.200

  28. Frame rate mode : Constant

  29. Frame rate : 23.976 (24000/1001/53354) FPS

  30. Color space : YUV

  31. Chroma subsampling : 4:2:0

  32. Bit depth : 10 bits

  33. Bits/(Pixel*Frame) : 0.298

  34. Stream size : 7.71 GiB (79%)

  35. Writing library : x265 3.5+2-g2b25c9ba0+45:[Windows][GCC 10.2.0][64 bit] Yuuki 10bit+8bit+12bit

  36. Encoding settings : rc=crf / crf=21.5000 / qcomp=0.70 / qpstep=4 / stats-write=0 / stats-read=0 / no-lossless / no-cu-lossless / aq-mode=3 / aq-strength=0.70 / cbqpoffs=0 / crqpoffs=0 / ipratio=1.40 / pbratio=1.30 / psy-rd=2.00 / psy-rdoq=0.00 / deblock=0:0 / ref=6 / limit-refs=1 / no-limit-modes / bframes=8 / b-adapt=2 / bframe-bias=0 / b-pyramid / b-intra / weightp / weightb / min-keyint=24 / max-keyint=240 / rc-lookahead=24 / gop-lookahead=0 / NTMzNTQ=uuDQuD2mJt9fsCf / scenecut=40 / hist-scenecut=0 / radl=0 / max-cu-size=64 / min-cu-size=8 / me=3 / subme=7 / merange=48 / rdoq-level=0 / rd=4 / rdpenalty=0 / dynamic-rd=0.00 / no-rd-refine / ----- / cutree / sao / no-rect / no-amp / no-open-gop / wpp / no-pmode / pme / no-psnr / no-ssim / nr-intra=0 / nr-inter=0 / no-constrained-intra / no-strong-intra-smoothing / max-tu-size=32 / tu-inter-depth=1 / tu-intra-depth=1 / limit-tu=0 / qg-size=32 / qpmax=69 / qpmin=0 / ----- / cpuid=533541111039 / frame-threads=4 / numa-pools=+ / log-level=2 / input-csp=1 / input-res=1296x1080 / interlace=0 / level-idc=0 / high-tier=1 / uhd-bd=0 / no-allow-non-conformance / no-repeat-headers / aud / no-hrd / info / hash=0 / no-temporal-layers / lookahead-slices=0 / no-splice / no-intra-refresh / no-ssim-rd / signhide / no-tskip / max-merge=3 / temporal-mvp / no-frame-dup / no-hme / no-analyze-src-pics / no-sao-non-deblock / selective-sao=4 / early-skip / rskip / no-fast-intra / no-tskip-fast / no-splitrd-skip / zone-count=0 / no-strict-cbr / no-rc-grain / no-const-vbv / sar=0 / overscan=0 / videoformat=5 / range=0 / colorprim=2 / transfer=2 / colormatrix=2 / chromaloc=0 / display-window=0 / cll=0,0 / min-luma=0 / max-luma=1023 / log2-max-poc-lsb=8 / vui-timing-info / vui-hrd-info / slices=1 / no-opt-qp-pps / no-opt-ref-list-length-pps / no-multi-pass-opt-rps / scenecut-bias=0.05 / hist-threshold=0.03 / no-opt-cu-delta-qp / no-aq-motion / no-hdr10 / no-hdr10-opt / no-dhdr10-opt / no-idr-recovery-sei / analysis-reuse-level=0 / analysis-save-reuse-level=0 / analysis-load-reuse-level=0 / scale-factor=0 / refine-intra=0 / refine-inter=0 / refine-mv=1 / refine-ctu-distortion=0 / no-limit-sao / ctu-info=0 / no-lowpass-dct / refine-analysis-type=0 / copy-pic=1 / max-ausize-factor=1.0 / no-dynamic-refine / no-single-sei / no-hevc-aq / no-svt / no-field / qp-adaptation-range=1.00 / scenecut-aware-qp=0conformance-window-offsets / right=0 / bottom=0 / NTMzNTQ= / decoder-max-rate=0 / no-vbv-live-multi-pass

  37. Default : Yes

  38. Forced : No


  39. Audio #1

  40. ID : 2

  41. Format : FLAC

  42. Format/Info : Free Lossless Audio Codec

  43. Codec ID : A_FLAC

  44. Duration : 1 h 52 min

  45. Bit rate mode : Variable

  46. Bit rate : 1 298 kb/s

  47. Channel(s) : 2 channels

  48. Channel layout : L R

  49. Sampling rate : 48.0 kHz

  50. Frame rate : 11.719 FPS (4096 SPF)

  51. Bit depth : 24 bits

  52. Compression mode : Lossless

  53. Stream size : 1.02 GiB (11%)

  54. Title : 2018 Berklee School of Music Orchestra score

  55. Writing library : libFLAC 1.2.1 (UTC 2007-09-17)

  56. Language : man

  57. Default : Yes

  58. Forced : No


  59. Audio #2

  60. ID : 3

  61. Format : FLAC

  62. Format/Info : Free Lossless Audio Codec

  63. Codec ID : A_FLAC

  64. Duration : 1 h 52 min

  65. Bit rate mode : Variable

  66. Bit rate : 1 270 kb/s

  67. Channel(s) : 2 channels

  68. Channel layout : L R

  69. Sampling rate : 48.0 kHz

  70. Frame rate : 11.719 FPS (4096 SPF)

  71. Bit depth : 24 bits

  72. Compression mode : Lossless

  73. Stream size : 1.00 GiB (10%)

  74. Title : 1928 Movietone Track

  75. Writing library : libFLAC 1.2.1 (UTC 2007-09-17)

  76. Language : man

  77. Default : No

  78. Forced : No


  79. Text #1

  80. ID : 4

  81. Format : ASS

  82. Codec ID : S_TEXT/ASS

  83. Codec ID/Info : Advanced Sub Station Alpha

  84. Duration : 1 h 47 min

  85. Bit rate : 14 b/s

  86. Count of elements : 162

  87. Compression mode : Lossless

  88. Stream size : 11.3 KiB (0%)

  89. Title : chs

  90. Language : Chinese

  91. Default : Yes

  92. Forced : No


  93. Text #2

  94. ID : 5

  95. Format : ASS

  96. Codec ID : S_TEXT/ASS

  97. Codec ID/Info : Advanced Sub Station Alpha

  98. Duration : 1 h 47 min

  99. Bit rate : 14 b/s

  100. Count of elements : 162

  101. Compression mode : Lossless

  102. Stream size : 11.3 KiB (0%)

  103. Title : cht

  104. Language : Chinese

  105. Default : No

  106. Forced : No


  107. Menu

  108. 00:00:00.000 : Chapter 01

  109. 00:09:56.053 : Chapter 02

  110. 00:14:57.563 : Chapter 03

  111. 00:24:27.716 : Chapter 04

  112. 00:34:07.712 : Chapter 05

  113. 00:41:19.643 : Chapter 06

  114. 00:50:05.961 : Chapter 07

  115. 00:59:12.131 : Chapter 08

  116. 01:09:06.142 : Chapter 09

  117. 01:15:10.839 : Chapter 10

  118. 01:24:01.369 : Chapter 11

  119. 01:32:34.006 : Chapter 12

  120. 01:41:03.849 : Chapter 13


文件下载


除非特别注明,本文『笑面人[中文字幕].The.Man.Who.Laughs.1928.1080p.BluRay.x265.10bit.FLAC.2.0.2Audio 9.75GB』来源于互联网机器人自动抓取,非本站原创。 浮游电影网不对本文拥有版权,如有侵犯,请联系邮箱:fuyouu#yandex.com[#换成@]投诉。我们会在15个工作日内删除。 但烦请转载时请标明出处:“本文转载于『浮游电影网』,原文地址:https://www.fuyouu.com/14442.html

评论吧骚年!

发表你的见解   

昵称*

E-mail*(建议输入,以便收到博主回复的提示邮件)

验证码*

您可以使用eMule或eMule Mod(Windows)、aMule(Win、Linux、Mac)等软件下载eD2k链接。。
eMule收藏集(.emulecollection)文件是您选中的所有链接的列表文件。eMule可以直接下载它们。
按住SHIFT键选择可以选中多个选择框。
可用文件名和大小选择器来选择文件。
文件名选择器帮您根据文件名称或后缀来选择文件。不分大小写。
符号使用:
和:空格( )、+
不包含:-
或:|
转义:一对英文引号("");
匹配开头:^
匹配结尾:$
例如:
选中所有名称中包含有“eMule”或“0.49c”字眼,但不包含有“exe”字眼的:emule|0.49c -exe
选中所有名称的开头是“eMule”,结尾是“0.49c”的:^emule 0.49c$
选中所有名称中带有“eMule 0.49c”的(必须是“eMule 0.49c”,中间没有别的字符,不能是“eMule fake 0.49c”),需要转义:"emule 0.49c"
大小选择器帮您根据文件大小选择文件。