当前位置: 首页 >> 海外电影 >> 寄生异形[国语配音/中文字幕].Sputnik.2020.4K.WEB-DL.H265.DDP5.1 13.59GB >> 正文

寄生异形[国语配音/中文字幕].Sputnik.2020.4K.WEB-DL.H265.DDP5.1 13.59GB

2021年09月19日 13:14:10     电影发布:来源于网络     电影分类:海外电影     评论(0)    

寄生异形[国语配音/中文字幕].Sputnik.2020.4K.WEB DL.H265.DDP5.1 13.59GB 科幻片 恐怖片 海外电影  第1张

◎译 名 寄生异形 / 人造卫星 / 卫星 / Sputnik / Satellite

◎片 名 Спутник

◎年 代 2020

◎产 地 俄罗斯

◎类 别 科幻 / 恐怖

◎语 言 俄语

◎上映日期 2020-04-15(翠贝卡电影节) / 2020-04-23(俄罗斯)

◎IMDb链接 https://www.imdb.com/title/tt11905962/

◎豆瓣评分 5.9/10 (5590人评价)

◎豆瓣链接 https://movie.douban.com/subject/34852765/

◎片 长 105分钟

◎导 演 艾戈尔·阿布拉门科 Egor Abramenko (id:1438815)

◎编 剧 奥列格·马洛维奇克 Oleg Malovichko (id:1337084)

安德烈·佐洛塔廖夫 Andrey Zolotarev (id:1370380)

◎演 员 奥莎娜·阿金什那 Oksana Akinshina (id:1000376)

费奥多尔·邦达尔丘克 Fyodor Bondarchuk (id:1048340)

彼得·费奥多罗夫 Pyotr Fyodorov (id:1046223)

安东·瓦西利耶夫 Anton Vasilev (id:1373250)

阿列克谢·杰米多夫 Aleksey Demidov (id:1365351)

维塔丽雅·科尔尼扬科 Vitaliya Kornienko (id:1386287)

◎标 签 科幻 / 俄罗斯 / 惊悚 / 外星人 / 恐怖 / 2020 / 电影 / 悬疑

◎简 介

年轻女医生Tatiana Yurievna(奥莎娜·阿金什那 Oksana Akinshina 饰)因为使用具争议的技术而差点被吊销医师执照。但她被军方招募来到一个机密的研究机构,协助研究一个特别的案例,太空人Konstantin Sergeyevich(彼得·费奥多罗 夫 Pyotr Fyodorov 饰)。这位太空人历经神秘的太空意外后幸存返回地球,体内却多了外星生物,而且这个神秘生物只在深夜时现身。军方想拥有这个外星生物进行邪恶的计划,但女医生只想阻止外星生物杀害太空人。

◎获奖情况 (共1项)

第4届平遥国际电影展 (2020)

首映单元最受欢迎影片(提名)

└──艾戈尔·阿布拉门科 (id:1438815)

  1. ##### MediaInfo ######

  2. General

  3. Unique ID : 119896545377145248457266566427615100296 (0x5A333C151AFAE298FB3C8692808EFD88)

  4. Complete name : 寄生异形[email protected]

  5. Format : Matroska

  6. Format version : Version 4

  7. File size : 13.6 GiB

  8. Duration : 1 h 52 min

  9. Overall bit rate : 17.3 Mb/s

  10. Encoded date : UTC 2021-09-17 09:22:37

  11. Writing application : mkvmerge v61.0.0 ('So') 64-bit

  12. Writing library : libebml v1.4.2 + libmatroska v1.6.4


  13. Video

  14. ID : 1

  15. Format : HEVC

  16. Format/Info : High Efficiency Video Coding

  17. Format profile : [email protected]@Main

  18. Codec ID : V_MPEGH/ISO/HEVC

  19. Duration : 1 h 52 min

  20. Bit rate : 16.8 Mb/s

  21. Width : 3 840 pixels

  22. Height : 1 608 pixels

  23. Display aspect ratio : 2.40:1

  24. Frame rate mode : Constant

  25. Frame rate : 25.000 FPS

  26. Color space : YUV

  27. Chroma subsampling : 4:2:0

  28. Bit depth : 8 bits

  29. Bits/(Pixel*Frame) : 0.109

  30. Stream size : 13.2 GiB (97%)

  31. Default : Yes

  32. Forced : No


  33. Audio #1

  34. ID : 2

  35. Format : E-AC-3

  36. Format/Info : Enhanced AC-3

  37. Commercial name : Dolby Digital Plus

  38. Codec ID : A_EAC3

  39. Duration : 1 h 52 min

  40. Bit rate mode : Constant

  41. Bit rate : 256 kb/s

  42. Channel(s) : 6 channels

  43. Channel layout : L R C LFE Ls Rs

  44. Sampling rate : 48.0 kHz

  45. Frame rate : 31.250 FPS (1536 SPF)

  46. Compression mode : Lossy

  47. Stream size : 206 MiB (1%)

  48. Service kind : Complete Main

  49. Default : Yes

  50. Forced : No


  51. Audio #2

  52. ID : 3

  53. Format : E-AC-3

  54. Format/Info : Enhanced AC-3

  55. Commercial name : Dolby Digital Plus

  56. Codec ID : A_EAC3

  57. Duration : 1 h 52 min

  58. Bit rate mode : Constant

  59. Bit rate : 256 kb/s

  60. Channel(s) : 6 channels

  61. Channel layout : L R C LFE Ls Rs

  62. Sampling rate : 48.0 kHz

  63. Frame rate : 31.250 FPS (1536 SPF)

  64. Compression mode : Lossy

  65. Stream size : 206 MiB (1%)

  66. Service kind : Complete Main

  67. Default : Yes

  68. Forced : No


文件下载


除非特别注明,本文『寄生异形[国语配音/中文字幕].Sputnik.2020.4K.WEB-DL.H265.DDP5.1 13.59GB』来源于互联网机器人自动抓取,非本站原创。 浮游电影网不对本文拥有版权,如有侵犯,请联系邮箱:fuyouu#yandex.com[#换成@]投诉。我们会在15个工作日内删除。 但烦请转载时请标明出处:“本文转载于『浮游电影网』,原文地址:https://www.fuyouu.com/14440.html

评论吧骚年!

发表你的见解   

昵称*

E-mail*(建议输入,以便收到博主回复的提示邮件)

验证码*

您可以使用eMule或eMule Mod(Windows)、aMule(Win、Linux、Mac)等软件下载eD2k链接。。
eMule收藏集(.emulecollection)文件是您选中的所有链接的列表文件。eMule可以直接下载它们。
按住SHIFT键选择可以选中多个选择框。
可用文件名和大小选择器来选择文件。
文件名选择器帮您根据文件名称或后缀来选择文件。不分大小写。
符号使用:
和:空格( )、+
不包含:-
或:|
转义:一对英文引号("");
匹配开头:^
匹配结尾:$
例如:
选中所有名称中包含有“eMule”或“0.49c”字眼,但不包含有“exe”字眼的:emule|0.49c -exe
选中所有名称的开头是“eMule”,结尾是“0.49c”的:^emule 0.49c$
选中所有名称中带有“eMule 0.49c”的(必须是“eMule 0.49c”,中间没有别的字符,不能是“eMule fake 0.49c”),需要转义:"emule 0.49c"
大小选择器帮您根据文件大小选择文件。