当前位置: 首页 >> 欧美电影 >> 小魔星[中文字幕].Arachnophobia.1990.1080p.BluRay.DTS.x265-10bit 9.02GB >> 正文

小魔星[中文字幕].Arachnophobia.1990.1080p.BluRay.DTS.x265-10bit 9.02GB

2021年09月19日 13:12:57     电影发布:来源于网络     电影分类:欧美电影     评论(0)    

小魔星[中文字幕].Arachnophobia.1990.1080p.BluRay.DTS.x265 10bit 9.02GB 科幻片 恐怖片 惊悚片 喜剧片 欧美电影  第1张

◎译 名 小魔星 / 小魔煞

◎片 名 Arachnophobia

◎年 代 1990

◎产 地 美国

◎类 别 喜剧 / 科幻 / 惊悚 / 恐怖

◎语 言 英语

◎上映日期 1990-07-18(美国)

◎IMDb链接 https://www.imdb.com/title/tt0099052/

◎豆瓣评分 7.3/10 (1565人评价)

◎豆瓣链接 https://movie.douban.com/subject/1292813/

◎片 长 103 分钟

◎导 演 弗兰克·马歇尔 Frank Marshall (id:1049939)

◎编 剧 唐·雅各比 Don Jakoby (id:1287555)

韦斯利·斯崔克 Wesley Strick (id:1005194)

Al Williams Al Williams (id:1052195)

◎演 员 杰夫·丹尼尔斯 Jeff Daniels (id:1006974)

哈莉·简·科扎克 Harley Jane Kozak (id:1103996)

约翰·古德曼 John Goodman (id:1017898)

朱利安·山德斯 Julian Sands (id:1013928)

斯图尔特·潘金 Stuart Pankin (id:1130020)

布莱恩·麦克纳玛拉 Brian McNamara (id:1041203)

马克·L·泰勒 Mark L. Taylor (id:1157195)

亨瑞·琼斯 Henry Jones (id:1107423)

皮特·杰森 Peter Jason (id:1110336)

詹姆斯·汉迪 James Handy (id:1342921)

罗伊·布罗克斯史密斯 Roy Brocksmith (id:1072294)

凯茜·金尼 Kathy Kinney (id:1113225)

玛丽·卡弗 Mary Carver (id:1074666)

加雷特·拉特利夫·亨森 Garette Ratliff Henson (id:1099543)

Marlene Katz Marlene Katz (id:1288213)

Jane Marla Robbins Jane Marla Robbins (id:1144555)

Chance Boyer Chance Boyer (id:1073234)

弗兰西斯·贝 Frances Bay (id:1063857)

Lois De Banzie Lois De Banzie (id:1085168)

Robert Frank Telfer Robert Frank Telfer (id:1152944)

菲奥娜·沃尔什 Fiona Walsh (id:1043848)

Jay Scorpio Jay Scorpio (id:1145650)

Robert 'Bobby Z' Zajonc Robert 'Bobby Z' Zajonc (id:1165191)

胡安·费尔南德斯 Juan Fernández (id:1036517)

布兰蒂·诺维德 Brandy Norwood (id:1055832)

唐·雅各比 Don Jakoby (id:1287555)

史蒂文·斯皮尔伯格 Steven Spielberg (id:1054440)

Robert W. Cort Robert W. Cort (id:1281316)

凯瑟琳·肯尼迪 Kathleen Kennedy (id:1019168)

迈克·芬顿 Mike Fenton (id:1283570)

朱迪·泰勒 Judy Taylor (id:1298995)

Valorie Massalas Valorie Massalas (id:1291230)

克里斯托弗·布里安-莫尔 Christopher Burian-Mohr (id:1279638)

詹姆斯·D·比斯 James D. Bissell (id:1278696)

Jennifer L. Parsons Jennifer L. Parsons (id:1294024)

James Lee McCoy James Lee McCoy (id:1291498)

迪欧妮·泰勒 Dione Taylor (id:1298975)

布鲁斯·科恩 Bruce Cohen (id:1280973)

史蒂文·斯皮尔伯格 Steven Spielberg (id:1054440)

克莱格·巴朗 Craig Barron (id:1277981)

Alison Savitch Alison Savitch (id:1296779)

David Sosalla David Sosalla (id:1298080)

Michael Pangrazio Michael Pangrazio (id:1293881)

杰米·韩门 Jamie Hyneman (id:1223858)

◎标 签 惊悚 / 恐怖 / 美国 / 蜘蛛 / 科幻 / 1990 / 美国电影 / 童年回忆

◎简 介

一只来自丛林的特种蜘蛛,意外的来到文明镇上,经历了一连串的巧合波折后,她找到了一个安稳的家——医师家中的壳仓。原来安宁的小镇,却因为它的小蜘蛛群出现而陷入危机,镇上的居民要如何消灭它们呢?

  1. ##### MediaInfo ######

  2. General

  3. Unique ID : 105163716100539409269443294024767138187 (0x4F1DCB8478BCE3324083B1AE4A00698B)

  4. Complete name : [email protected]mkv

  5. Format : Matroska

  6. Format version : Version 4

  7. File size : 9.01 GiB

  8. Duration : 1 h 49 min

  9. Overall bit rate : 11.8 Mb/s

  10. Movie name : Arachnophobia 1990 1080p BluRay DTS [email protected]

  11. Encoded date : UTC 2021-09-17 02:54:24

  12. Writing application : mkvmerge v38.0.0 ('The Silent Type') 64-bit

  13. Writing library : libebml v1.3.9 + libmatroska v1.5.2


  14. Video

  15. ID : 1

  16. Format : HEVC

  17. Format/Info : High Efficiency Video Coding

  18. Format profile : Main [email protected]@High

  19. Codec ID : V_MPEGH/ISO/HEVC

  20. Duration : 1 h 49 min

  21. Bit rate : 10.2 Mb/s

  22. Width : 1 920 pixels

  23. Height : 1 040 pixels

  24. Display aspect ratio : 1.85:1

  25. Frame rate mode : Constant

  26. Frame rate : 23.976 (24000/1001/53354) FPS

  27. Color space : YUV

  28. Chroma subsampling : 4:2:0

  29. Bit depth : 10 bits

  30. Bits/(Pixel*Frame) : 0.214

  31. Stream size : 7.83 GiB (87%)

  32. Title : @HDSky

  33. Writing library : x265 - H.265/HEVC codec

  34. Default : Yes

  35. Forced : No


  36. Audio

  37. ID : 2

  38. Format : DTS

  39. Format/Info : Digital Theater Systems

  40. Codec ID : A_DTS

  41. Duration : 1 h 49 min

  42. Bit rate mode : Constant

  43. Bit rate : 1 509 kb/s

  44. Channel(s) : 6 channels

  45. Channel layout : C L R Ls Rs LFE

  46. Sampling rate : 48.0 kHz

  47. Frame rate : 93.750 FPS (512 SPF)

  48. Bit depth : 24 bits

  49. Compression mode : Lossy

  50. Stream size : 1.16 GiB (13%)

  51. Title : English

  52. Language : English

  53. Default : Yes

  54. Forced : No


  55. Text #1

  56. ID : 3

  57. Format : PGS

  58. Muxing mode : zlib

  59. Codec ID : S_HDMV/PGS

  60. Codec ID/Info : Picture based subtitle format used on BDs/HD-DVDs

  61. Duration : 1 h 43 min

  62. Bit rate : 35.3 kb/s

  63. Count of elements : 2856

  64. Stream size : 26.1 MiB (0%)

  65. Title : CHS

  66. Language : Chinese

  67. Default : Yes

  68. Forced : No


  69. Text #2

  70. ID : 4

  71. Format : PGS

  72. Muxing mode : zlib

  73. Codec ID : S_HDMV/PGS

  74. Codec ID/Info : Picture based subtitle format used on BDs/HD-DVDs

  75. Duration : 1 h 43 min

  76. Bit rate : 36.2 kb/s

  77. Count of elements : 2856

  78. Stream size : 26.7 MiB (0%)

  79. Title : CHT

  80. Language : Chinese

  81. Default : No

  82. Forced : No


  83. Menu

  84. 00:00:00.000 : en:Chapter 01

  85. 00:17:26.462 : en:Chapter 02

  86. 00:36:46.538 : en:Chapter 03

  87. 00:58:04.523 : en:Chapter 04

  88. 01:13:08.593 : en:Chapter 05

  89. 01:26:17.214 : en:Chapter 06

  90. 01:31:32.987 : en:Chapter 07

  91. 01:43:41.674 : en:Chapter 08


文件下载


除非特别注明,本文『小魔星[中文字幕].Arachnophobia.1990.1080p.BluRay.DTS.x265-10bit 9.02GB』来源于互联网机器人自动抓取,非本站原创。 浮游电影网不对本文拥有版权,如有侵犯,请联系邮箱:fuyouu#yandex.com[#换成@]投诉。我们会在15个工作日内删除。 但烦请转载时请标明出处:“本文转载于『浮游电影网』,原文地址:https://www.fuyouu.com/14439.html

评论吧骚年!

发表你的见解   

昵称*

E-mail*(建议输入,以便收到博主回复的提示邮件)

验证码*

您可以使用eMule或eMule Mod(Windows)、aMule(Win、Linux、Mac)等软件下载eD2k链接。。
eMule收藏集(.emulecollection)文件是您选中的所有链接的列表文件。eMule可以直接下载它们。
按住SHIFT键选择可以选中多个选择框。
可用文件名和大小选择器来选择文件。
文件名选择器帮您根据文件名称或后缀来选择文件。不分大小写。
符号使用:
和:空格( )、+
不包含:-
或:|
转义:一对英文引号("");
匹配开头:^
匹配结尾:$
例如:
选中所有名称中包含有“eMule”或“0.49c”字眼,但不包含有“exe”字眼的:emule|0.49c -exe
选中所有名称的开头是“eMule”,结尾是“0.49c”的:^emule 0.49c$
选中所有名称中带有“eMule 0.49c”的(必须是“eMule 0.49c”,中间没有别的字符,不能是“eMule fake 0.49c”),需要转义:"emule 0.49c"
大小选择器帮您根据文件大小选择文件。