当前位置: 首页 >> 国产电影 >> 龙脉:八幡神域[国语配音/中文字幕].Long.Mai:Ba.Fan.Shen.Yu.2021.WEB-DL.1080p.H264.AAC 1.29GB >> 正文

龙脉:八幡神域[国语配音/中文字幕].Long.Mai:Ba.Fan.Shen.Yu.2021.WEB-DL.1080p.H264.AAC 1.29GB

2021年09月18日 11:59:18     电影发布:来源于网络     电影分类:国产电影     评论(0)    

龙脉:八幡神域[国语配音/中文字幕].Long.Mai:Ba.Fan.Shen.Yu.2021.WEB DL.1080p.H264.AAC 1.29GB 冒险片 动作片 剧情片 国产电影  第1张

◎译 名 龙脉·八幡神域

◎年 代 2021

◎产 地 中国大陆

◎类 别 剧情 / 动作 / 冒险

◎语 言 汉语普通话

◎上映日期 2021-08-22(中国大陆)

◎IMDb链接 https://www.imdb.com/title//

◎豆瓣链接 https://movie.douban.com/subject/35561556/

◎片 长 88分钟

◎导 演 李伯勋 Boxun Li (id:1404453)

◎演 员 淮文 Shawn (id:1337187)

胡雪儿 Xue'er Hu (id:1402568)

包小平 Xiaoping Bao (id:1406523)

金亮 Liang Jin (id:1350238)

刘音 Toshika Liu (id:1365646)

佟磊 Lei Tong (id:1316504)

姜永波 Yongbo Jiang (id:1370207)

标马 Ma Biao (id:1359016)

◎标 签 冒险 / 无聊死了 / 大陆 / 奇幻 / 中国大陆 / 2021 / 网络大电影 / 网大

◎简 介

故事发生在九十年代初,文物局司机王保银(萧浩冉饰)万事不顺,工作屡次无法转正。一筹莫展之际他意外发现了失踪多年的父亲所留下的遗物:一张龙脉地图和带有特殊标志的徽章。父亲本就是王保银的心结,而这一契机让急于证明自己的王保银开始对父亲失踪一事进行追查。于是,王保银在发小胖子强(包小平饰)和“搬山道人”的后人郑鑫(胡雪儿饰)的支持下,三人一同踏上了险象重重的西行路。一望无垠的荒漠中,吞人蚀骨的沙漠风暴险些要了三人的命,然而,虽有幸被当地原住民阿拉白、米丽(刘音饰)救出,却又很快被原住民误认为他们来者不善,遭到各种计谋追杀。此时,屡次入室王保银家的楚江平(李中奇饰)盗墓团伙也在此地现身。王保银三人在一次又一次的绝地求生后,终于找到神域入口,于是梦中的神秘幻象竟真的出现王保银的眼前:一片满是孢子的地下湖、隐约浮现邪神少女(曹禹澄饰)的影子,半空悬着的巨大的八幡...

  1. ##### MediaInfo ######

  2. General

  3. Complete name : 龙脉:八幡神域.Long.Mai:[email protected]

  4. Format : MPEG-4

  5. Format profile : Base Media

  6. Codec ID : isom (isom/iso2/mp41)

  7. File size : 1.29 GiB

  8. Duration : 1 h 28 min

  9. Overall bit rate mode : Variable

  10. Overall bit rate : 2 095 kb/s

  11. Writing application : Lavf58.29.100


  12. Video

  13. ID : 1

  14. Format : HEVC

  15. Format/Info : High Efficiency Video Coding

  16. Format profile : [email protected]@Main

  17. Codec ID : hev1

  18. Codec ID/Info : High Efficiency Video Coding

  19. Duration : 1 h 28 min

  20. Bit rate : 1 995 kb/s

  21. Width : 1 920 pixels

  22. Height : 816 pixels

  23. Display aspect ratio : 2.35:1

  24. Frame rate mode : Variable

  25. Frame rate : 25.000 FPS

  26. Minimum frame rate : 24.993 FPS

  27. Maximum frame rate : 25.007 FPS

  28. Color space : YUV

  29. Chroma subsampling : 4:2:0

  30. Bit depth : 8 bits

  31. Bits/(Pixel*Frame) : 0.051

  32. Stream size : 1.23 GiB (95%)

  33. Color range : Limited

  34. Color primaries : BT.709

  35. Transfer characteristics : BT.709

  36. Matrix coefficients : BT.709

  37. Codec configuration box : hvcC


  38. Audio

  39. ID : 2

  40. Format : AAC LC

  41. Format/Info : Advanced Audio Codec Low Complexity

  42. Codec ID : mp4a-40-2

  43. Duration : 1 h 28 min

  44. Bit rate mode : Variable

  45. Bit rate : 96.0 kb/s

  46. Channel(s) : 2 channels

  47. Channel layout : L R

  48. Sampling rate : 48.0 kHz

  49. Frame rate : 46.875 FPS (1024 SPF)

  50. Compression mode : Lossy

  51. Stream size : 59.0 MiB (4%)

  52. Default : Yes

  53. Alternate group : 1


文件下载


除非特别注明,本文『龙脉:八幡神域[国语配音/中文字幕].Long.Mai:Ba.Fan.Shen.Yu.2021.WEB-DL.1080p.H264.AAC 1.29GB』来源于互联网机器人自动抓取,非本站原创。 浮游电影网不对本文拥有版权,如有侵犯,请联系邮箱:fuyouu#yandex.com[#换成@]投诉。我们会在15个工作日内删除。 但烦请转载时请标明出处:“本文转载于『浮游电影网』,原文地址:https://www.fuyouu.com/14437.html

评论吧骚年!

发表你的见解   

昵称*

E-mail*(建议输入,以便收到博主回复的提示邮件)

验证码*

您可以使用eMule或eMule Mod(Windows)、aMule(Win、Linux、Mac)等软件下载eD2k链接。。
eMule收藏集(.emulecollection)文件是您选中的所有链接的列表文件。eMule可以直接下载它们。
按住SHIFT键选择可以选中多个选择框。
可用文件名和大小选择器来选择文件。
文件名选择器帮您根据文件名称或后缀来选择文件。不分大小写。
符号使用:
和:空格( )、+
不包含:-
或:|
转义:一对英文引号("");
匹配开头:^
匹配结尾:$
例如:
选中所有名称中包含有“eMule”或“0.49c”字眼,但不包含有“exe”字眼的:emule|0.49c -exe
选中所有名称的开头是“eMule”,结尾是“0.49c”的:^emule 0.49c$
选中所有名称中带有“eMule 0.49c”的(必须是“eMule 0.49c”,中间没有别的字符,不能是“eMule fake 0.49c”),需要转义:"emule 0.49c"
大小选择器帮您根据文件大小选择文件。