当前位置: 首页 >> 动画电影 >> 新大头儿子和小头爸爸4:完美爸爸[国语配音/中文字幕].New.Happy.Dad.And.Son.4:Perfect.Dad.2021.1080P 2.50GB >> 正文

新大头儿子和小头爸爸4:完美爸爸[国语配音/中文字幕].New.Happy.Dad.And.Son.4:Perfect.Dad.2021.1080P 2.50GB

2021年09月18日 11:57:16     电影发布:来源于网络     电影分类:动画电影     评论(0)    

新大头儿子和小头爸爸4:完美爸爸[国语配音/中文字幕].New.Happy.Dad.And.Son.4:Perfect.Dad.2021.1080P 2.50GB 动画片 冒险片 奇幻片 动画电影  第1张

◎译 名 新大头儿子和小头爸爸4:完美爸爸 / New Happy Dad And Son 4:Perfect Dad

◎年 代 2021

◎产 地 中国大陆

◎类 别 动画 / 奇幻 / 冒险

◎语 言 汉语普通话

◎上映日期 2021-07-09(中国大陆)

◎IMDb链接 https://www.imdb.com/title/tt14760652/

◎豆瓣评分 4.9/10 (1469人评价)

◎豆瓣链接 https://movie.douban.com/subject/34913583/

◎片 长 80分钟

◎导 演 何澄 Cheng He (id:1342907)

刘可欣 Kexin Liu (id:1320626)

◎演 员 董浩 Hao Dong (id:1318435)

鞠萍 Ping Ju (id:1274251)

陈怡 Yi Chen (id:1405528)

耿晨晨 Chenchen Geng (id:1342905)

陈苏 Su Chen (id:1342904)

王淏 Hao Wang (id:1354855)

郏捷 Jie Jia (id:1354854)

何子然 Ziran He (id:1354856)

黄炜 Wei Huang (id:1354859)

霍小雷 Xiaolei Huo (id:1342903)

王金建 Jinjian Wang (id:1442812)

刘洋 Yang Liu (id:1426634)

◎标 签 大头儿子和小头爸爸 / 动画 / 儿童 / 童年回忆 / 2021 / 中国大陆 / 国产 / 奇幻

◎简 介

当孩子的想象力遇上人工智能,会碰撞出什么神奇火花?一个夜晚,因一整天的不顺利而伤心沮丧的大头儿子,无意间触发了小头爸爸正在编写的智能程序,意外地被带入了一个神秘的虚拟世界,那里边竟然住着一个“完美爸爸”!俩人一起穿越云朵、创建城市、住进太空舱,一起畅游糖果海、神奇乐园,大头儿子的所有心愿都被“完美爸爸”一一满足。然而,“完美”的表面背后,实则暗藏危机……

◎获奖情况 (共1项)

第24届上海国际电影节 (2021)

金爵奖 最佳动画片(提名)

  1. ##### MediaInfo ######

  2. General

  3. Complete name : 新大头儿子和小头爸爸4:完美爸爸.New.Happy.Dad.And.Son.4:[email protected]M.mp4

  4. Format : MPEG-4

  5. Format profile : Base Media

  6. Codec ID : isom (isom/iso2/mp41)

  7. File size : 2.50 GiB

  8. Duration : 1 h 25 min

  9. Overall bit rate : 4 183 kb/s

  10. Writing application : Lavf58.29.100


  11. Video

  12. ID : 1

  13. Format : HEVC

  14. Format/Info : High Efficiency Video Coding

  15. Format profile : Main [email protected]@Main

  16. HDR format : SMPTE ST 2086, HDR10 compatible

  17. Codec ID : hev1

  18. Codec ID/Info : High Efficiency Video Coding

  19. Duration : 1 h 25 min

  20. Bit rate : 3 918 kb/s

  21. Width : 1 920 pixels

  22. Height : 1 080 pixels

  23. Display aspect ratio : 16:9

  24. Frame rate mode : Variable

  25. Frame rate : 50.000 FPS

  26. Minimum frame rate : 49.972 FPS

  27. Maximum frame rate : 50.028 FPS

  28. Color space : YUV

  29. Chroma subsampling : 4:2:0

  30. Bit depth : 10 bits

  31. Bits/(Pixel*Frame) : 0.038

  32. Stream size : 2.34 GiB (94%)

  33. Color range : Limited

  34. Color primaries : BT.2020

  35. Transfer characteristics : PQ

  36. Matrix coefficients : BT.2020 non-constant

  37. Mastering display color primaries : Display P3

  38. Mastering display luminance : min: 0.0005 cd/m2, max: 500 cd/m2

  39. Codec configuration box : hvcC


  40. Audio

  41. ID : 2

  42. Format : E-AC-3

  43. Format/Info : Enhanced AC-3

  44. Commercial name : Dolby Digital Plus

  45. Codec ID : ec-3

  46. Duration : 1 h 25 min

  47. Bit rate mode : Constant

  48. Bit rate : 256 kb/s

  49. Channel(s) : 2 channels

  50. Channel layout : L R

  51. Sampling rate : 48.0 kHz

  52. Frame rate : 31.250 FPS (1536 SPF)

  53. Compression mode : Lossy

  54. Stream size : 157 MiB (6%)

  55. Service kind : Complete Main

  56. Default : Yes

  57. Alternate group : 1


文件下载


除非特别注明,本文『新大头儿子和小头爸爸4:完美爸爸[国语配音/中文字幕].New.Happy.Dad.And.Son.4:Perfect.Dad.2021.1080P 2.50GB』来源于互联网机器人自动抓取,非本站原创。 浮游电影网不对本文拥有版权,如有侵犯,请联系邮箱:fuyouu#yandex.com[#换成@]投诉。我们会在15个工作日内删除。 但烦请转载时请标明出处:“本文转载于『浮游电影网』,原文地址:https://www.fuyouu.com/14435.html

评论吧骚年!

发表你的见解   

昵称*

E-mail*(建议输入,以便收到博主回复的提示邮件)

验证码*

您可以使用eMule或eMule Mod(Windows)、aMule(Win、Linux、Mac)等软件下载eD2k链接。。
eMule收藏集(.emulecollection)文件是您选中的所有链接的列表文件。eMule可以直接下载它们。
按住SHIFT键选择可以选中多个选择框。
可用文件名和大小选择器来选择文件。
文件名选择器帮您根据文件名称或后缀来选择文件。不分大小写。
符号使用:
和:空格( )、+
不包含:-
或:|
转义:一对英文引号("");
匹配开头:^
匹配结尾:$
例如:
选中所有名称中包含有“eMule”或“0.49c”字眼,但不包含有“exe”字眼的:emule|0.49c -exe
选中所有名称的开头是“eMule”,结尾是“0.49c”的:^emule 0.49c$
选中所有名称中带有“eMule 0.49c”的(必须是“eMule 0.49c”,中间没有别的字符,不能是“eMule fake 0.49c”),需要转义:"emule 0.49c"
大小选择器帮您根据文件大小选择文件。