当前位置: 首页 >> 国产电影 >> 大内密探[国语配音/中文字幕].Da.Nei.Mi.Tan.2021.1080P.WEB-DL.50FPS.H265.HDR.DDP 4.35GB >> 正文

大内密探[国语配音/中文字幕].Da.Nei.Mi.Tan.2021.1080P.WEB-DL.50FPS.H265.HDR.DDP 4.35GB

2021年09月18日 11:54:54     电影发布:来源于网络     电影分类:国产电影     评论(0)    

大内密探[国语配音/中文字幕].Da.Nei.Mi.Tan.2021.1080P.WEB DL.50FPS.H265.HDR.DDP 4.35GB 古装片 喜剧片 国产电影  第1张

◎译 名 大内密探

◎年 代 2021

◎产 地 中国大陆

◎类 别 喜剧 / 古装

◎语 言 汉语普通话

◎上映日期 2021-09-14(中国大陆)

◎IMDb链接 https://www.imdb.com/title//

◎豆瓣链接 https://movie.douban.com/subject/34937816/

◎导 演 王道铁 Daotie Wang (id:1331568)

◎演 员 刘楚玄 Chuxuan Liu (id:1415275)

◎标 签 喜剧 / 古装 / 动作 / 剧情 / 烂就一个字 / 大陆 / 大陆国影 / 搞笑

◎简 介

明朝年间,皇叔吴王密谋联手番邦篡取王位,谋反证物是一把武器库的钥匙,关乎国家兴亡之命脉,因乌龙巧合假扮大内密探的主人公卷入证物争夺之战,国家兴亡,匹夫有责,主人公最终联合大内密探,一举夺取了证物揭发了吴王,保卫了国家。

  1. ##### MediaInfo ######

  2. General

  3. Complete name : 大内密探[email protected].COM.mp4

  4. Format : MPEG-4

  5. Format profile : Base Media

  6. Codec ID : isom (isom/iso2/mp41)

  7. File size : 4.35 GiB

  8. Duration : 1 h 24 min

  9. Overall bit rate : 7 372 kb/s

  10. Writing application : Lavf58.29.100


  11. Video

  12. ID : 1

  13. Format : HEVC

  14. Format/Info : High Efficiency Video Coding

  15. Format profile : Main [email protected]@Main

  16. HDR format : SMPTE ST 2086, HDR10 compatible

  17. Codec ID : hev1

  18. Codec ID/Info : High Efficiency Video Coding

  19. Duration : 1 h 24 min

  20. Bit rate : 7 102 kb/s

  21. Width : 1 920 pixels

  22. Height : 722 pixels

  23. Display aspect ratio : 2.659

  24. Frame rate mode : Variable

  25. Frame rate : 48.000 FPS

  26. Minimum frame rate : 47.974 FPS

  27. Maximum frame rate : 48.026 FPS

  28. Color space : YUV

  29. Chroma subsampling : 4:2:0

  30. Bit depth : 10 bits

  31. Bits/(Pixel*Frame) : 0.107

  32. Stream size : 4.19 GiB (96%)

  33. Color range : Limited

  34. Color primaries : BT.2020

  35. Transfer characteristics : PQ

  36. Matrix coefficients : BT.2020 non-constant

  37. Mastering display color primaries : Display P3

  38. Mastering display luminance : min: 0.0005 cd/m2, max: 500 cd/m2

  39. Codec configuration box : hvcC


  40. Audio

  41. ID : 2

  42. Format : E-AC-3

  43. Format/Info : Enhanced AC-3

  44. Commercial name : Dolby Digital Plus

  45. Codec ID : ec-3

  46. Duration : 1 h 24 min

  47. Bit rate mode : Constant

  48. Bit rate : 256 kb/s

  49. Channel(s) : 2 channels

  50. Channel layout : L R

  51. Sampling rate : 48.0 kHz

  52. Frame rate : 31.250 FPS (1536 SPF)

  53. Compression mode : Lossy

  54. Stream size : 155 MiB (3%)

  55. Service kind : Complete Main

  56. Default : Yes

  57. Alternate group : 1


文件下载


除非特别注明,本文『大内密探[国语配音/中文字幕].Da.Nei.Mi.Tan.2021.1080P.WEB-DL.50FPS.H265.HDR.DDP 4.35GB』来源于互联网机器人自动抓取,非本站原创。 浮游电影网不对本文拥有版权,如有侵犯,请联系邮箱:fuyouu#yandex.com[#换成@]投诉。我们会在15个工作日内删除。 但烦请转载时请标明出处:“本文转载于『浮游电影网』,原文地址:https://www.fuyouu.com/14433.html

评论吧骚年!

发表你的见解   

昵称*

E-mail*(建议输入,以便收到博主回复的提示邮件)

验证码*

您可以使用eMule或eMule Mod(Windows)、aMule(Win、Linux、Mac)等软件下载eD2k链接。。
eMule收藏集(.emulecollection)文件是您选中的所有链接的列表文件。eMule可以直接下载它们。
按住SHIFT键选择可以选中多个选择框。
可用文件名和大小选择器来选择文件。
文件名选择器帮您根据文件名称或后缀来选择文件。不分大小写。
符号使用:
和:空格( )、+
不包含:-
或:|
转义:一对英文引号("");
匹配开头:^
匹配结尾:$
例如:
选中所有名称中包含有“eMule”或“0.49c”字眼,但不包含有“exe”字眼的:emule|0.49c -exe
选中所有名称的开头是“eMule”,结尾是“0.49c”的:^emule 0.49c$
选中所有名称中带有“eMule 0.49c”的(必须是“eMule 0.49c”,中间没有别的字符,不能是“eMule fake 0.49c”),需要转义:"emule 0.49c"
大小选择器帮您根据文件大小选择文件。